Subcategories

Gipsy Kings - Gipsy Kings (1987)

Posted By: Designol
Gipsy Kings - Gipsy Kings (1987)

Gipsy Kings - Gipsy Kings (1987)
EAC | APE | Image (Cue&Log) ~ 280 Mb (incl 5%) | Mp3 (CBR320/Stereo) ~ 126 Mb (incl 5%) | Scans included
Genre: Flamenco, Rumba Catalana, World Fusion | Label: Columbia/Sony/PEM | # 469123 2 | Time: 00:43:24

The mega-hit album that introduced the general public to the flamenco flavors, ebullient vocals and rushing rhythms of the Gypsies.
More than any other band, the Gipsy Kings are responsible for the renewed interest in gypsy music, and this is the album that broke them through to the international mainstream. Although their carefully crafted music is not "pure" gypsy, their impassioned performances create a window for the uninitiated into the deeper world of flamenco and other styles. If you're not a purist, the Gipsy Kings provide powerful, highly contagious, mostly acoustic music that may represent a new form of contemporary gypsy music for the masses; or you can view it as pure pop. This disc lays down their trademark mix of guitars, handclaps, and percussion over 12 varied tracks ranging from intense dance numbers to passionate love songs such as "Un Amor." Linking it all together are the throaty, emotional vocals, notably those of Nicolas Reyes, evoking the smoky campfires of his underprivileged brethren where this highly polished music originated.

Review by Derek Rath
Biography
Wiki
Website


Tracklist:

01. Bamboleo (03:24)
02. Tu Quieres Volver (03:13)
03. Moorea (04:02)
04. Bem, Bem, Maria (03:04)
05. Un Amor (03:38)
06. Inspiration (03:43)
07. A Mi Manera (Comme D'Habitude) (03:53)
08. Djobi Djoba (03:26)
09. Faena (03:27)
10. Quiero Saber (04:07)
11. Amor, Amor (03:09)
12. Duende (04:17)


Exact Audio Copy V0.99 prebeta 4 from 23. January 2008

EAC extraction logfile from 19. October 2009, 3:25

Gipsy Kings / Gipsy Kings

Used drive : PIONEER DVD-RW DVR-105 Adapter: 1 ID: 0

Read mode : Secure
Utilize accurate stream : Yes
Defeat audio cache : Yes
Make use of C2 pointers : No

Read offset correction : 48
Overread into Lead-In and Lead-Out : Yes
Fill up missing offset samples with silence : Yes
Delete leading and trailing silent blocks : No
Null samples used in CRC calculations : Yes
Used interface : Installed external ASPI interface

Used output format : Monkey's Audio Lossless Encoder
Selected bitrate : High Lossless Compression
Quality : High
Add ID3 tag : Yes
Command line compressor : C:\Program Files\Monkey's Audio\Monkey's Audio.exe


TOC of the extracted CD

Track | Start | Length | Start sector | End sector
––––––––––––––––––––––––––––-
1 | 0:00.00 | 3:24.50 | 0 | 15349
2 | 3:24.50 | 3:13.65 | 15350 | 29889
3 | 6:38.40 | 4:02.20 | 29890 | 48059
4 | 10:40.60 | 3:04.72 | 48060 | 61931
5 | 13:45.57 | 3:38.58 | 61932 | 78339
6 | 17:24.40 | 3:43.15 | 78340 | 95079
7 | 21:07.55 | 3:53.37 | 95080 | 112591
8 | 25:01.17 | 3:26.20 | 112592 | 128061
9 | 28:27.37 | 3:27.65 | 128062 | 143651
10 | 31:55.27 | 4:07.53 | 143652 | 162229
11 | 36:03.05 | 3:09.25 | 162230 | 176429
12 | 39:12.30 | 4:17.62 | 176430 | 195766


Range status and errors

Selected range

Filename \\.PSF\Home\Desktop\ RIP\Gipsy Kings - Gipsy Kings\Gipsy Kings - Gipsy Kings.wav

Peak level 97.1 %
Range quality 100.0 %
Test CRC F042E34F
Copy CRC F042E34F
Copy OK

No errors occurred


AccurateRip summary

Track 1 accurately ripped (confidence 9) [DD27D30D]
Track 2 accurately ripped (confidence 9) [B0F92869]
Track 3 accurately ripped (confidence 9) [9294526B]
Track 4 accurately ripped (confidence 9) [CF02FBCB]
Track 5 accurately ripped (confidence 9) [42AE88A4]
Track 6 accurately ripped (confidence 9) [69468D8D]
Track 7 accurately ripped (confidence 9) [A76968C8]
Track 8 accurately ripped (confidence 9) [B5A07D0E]
Track 9 accurately ripped (confidence 9) [2C3B4E8C]
Track 10 accurately ripped (confidence 9) [B80DD65D]
Track 11 accurately ripped (confidence 9) [B7F6D030]
Track 12 accurately ripped (confidence 8) [9D1013BE]

All tracks accurately ripped

End of status report

foobar2000 1.2.1 / Dynamic Range Meter 1.1.1
log date: 2013-01-29 23:04:37

––––––––––––––––––––––––––––––––––––––––
Analyzed: Gipsy Kings / Gipsy Kings
––––––––––––––––––––––––––––––––––––––––

DR Peak RMS Duration Track
––––––––––––––––––––––––––––––––––––––––
DR13 -0.25 dB -15.14 dB 3:25 01-Bamboleo
DR10 -1.45 dB -13.46 dB 3:14 02-Tu Quieres Volver
DR10 -1.66 dB -13.94 dB 4:02 03-Moorea
DR12 -0.69 dB -15.17 dB 3:05 04-Bem, Bem, Maria
DR10 -2.23 dB -14.03 dB 3:39 05-Un Amor
DR11 -0.41 dB -12.77 dB 3:43 06-Inspiration
DR11 -1.79 dB -15.07 dB 3:53 07-A Mi Manera (Comme D'Habitude)
DR12 -0.52 dB -14.53 dB 3:26 08-Djobi Djoba
DR11 -2.90 dB -15.82 dB 3:28 09-Faena
DR12 -1.55 dB -15.17 dB 4:08 10-Quiero Saber
DR12 -0.70 dB -14.83 dB 3:09 11-Amor, Amor
DR12 -0.92 dB -15.22 dB 4:18 12-Duende
––––––––––––––––––––––––––––––––––––––––

Number of tracks: 12
Official DR value: DR11

Samplerate: 44100 Hz
Channels: 2
Bits per sample: 16
Bitrate: 789 kbps
Codec: Monkey's Audio
================================================================================

Gipsy Kings - Gipsy Kings (1987)

Gipsy Kings - Gipsy Kings (1987)