Subcategories

Gipsy Kings - Allegria (1982)

Posted By: Designol
Gipsy Kings - Allegria (1982)

Gipsy Kings - Allegria (1982)
EAC | FLAC | Image (Cue&Log) ~ 298 Mb (incl 5%) | Mp3 (CBR320/Stereo) ~ 174 Mb (incl 5%) | Scans included
Genre: Flamenco, Rumba Catalana, World Fusion | Label: Sony/Columbia | # 466762 2 | Time: 00:38:50

Allegria is the first album by the Gipsy Kings, released in 1982 in Europe. This album and its successor, Luna de Fuego, are very different from their later albums. They are both "unplugged" and traditional, using solely guitars, voices and hand claps. The Gipsy Kings are a band of musicians from the Catalan region in the south of France. Their roots are steeped in the Romany tradition and they demonstrate a love of Rumba Catalana - a love which they have brought to a more mainstream audience.
Gipsy Kings - Allegria (1982)



Tracklist:

01. Pena Penita 3:19
02. Allegria 2:47
03. La Dona (Dédiée À Brigitte Bardot) 3:30
04. Solituda 2:38
05. Sueno 3:24
06. Djobi, Djoba 3:31
07. Un Amor 3:51
08. Papa, No Pega La Mama 3:05
09. Pharaon 4:07
10. Tristessa 3:36
11. Recuerda 4:58


Exact Audio Copy V1.0 beta 3 from 29. August 2011

EAC extraction logfile from 27. February 2012, 15:35

Gipsy Kings / Allegria (466762 2)

Used drive : HL-DT-STDVDRW GSA-S10N Adapter: 0 ID: 1

Read mode : Secure
Utilize accurate stream : Yes
Defeat audio cache : Yes
Make use of C2 pointers : No

Read offset correction : 667
Overread into Lead-In and Lead-Out : No
Fill up missing offset samples with silence : Yes
Delete leading and trailing silent blocks : No
Null samples used in CRC calculations : Yes
Used interface : Native Win32 interface for Win NT & 2000

Used output format : User Defined Encoder
Selected bitrate : 768 kBit/s
Quality : High
Add ID3 tag : No
Command line compressor : C:\Program Files\Exact Audio Copy 1.3\Flac\flac.exe
Additional command line options : -V -8 %source%


TOC of the extracted CD

Track | Start | Length | Start sector | End sector
––––––––––––––––––––––––––––-
1 | 0:00.32 | 3:19.63 | 32 | 15019
2 | 3:20.20 | 2:47.00 | 15020 | 27544
3 | 6:07.20 | 3:30.07 | 27545 | 43301
4 | 9:37.27 | 2:38.40 | 43302 | 55191
5 | 12:15.67 | 3:24.53 | 55192 | 70544
6 | 15:40.45 | 3:31.50 | 70545 | 86419
7 | 19:12.20 | 3:51.00 | 86420 | 103744
8 | 23:03.20 | 3:05.07 | 103745 | 117626
9 | 26:08.27 | 4:07.18 | 117627 | 136169
10 | 30:15.45 | 3:36.67 | 136170 | 152436
11 | 33:52.37 | 4:58.13 | 152437 | 174799


Range status and errors

Selected range

Filename C:\Olaf der Weisse\Gipsy Kings . 1982 . Allegria (466762 2)\Gipsy Kings - Allegria (466762 2).wav

Peak level 80.0 %
Extraction speed 2.1 X
Range quality 99.9 %
Test CRC 46DD56CA
Copy CRC 46DD56CA
Copy OK

No errors occurred


AccurateRip summary

Track 1 accurately ripped (confidence 8) [DD800F94] (AR v2)
Track 2 accurately ripped (confidence 8) [0EE1EFED] (AR v2)
Track 3 accurately ripped (confidence 8) [F61B52B9] (AR v2)
Track 4 accurately ripped (confidence 8) [67F3DE88] (AR v2)
Track 5 accurately ripped (confidence 8) [38EAB375] (AR v2)
Track 6 accurately ripped (confidence 8) [498C63A7] (AR v2)
Track 7 accurately ripped (confidence 8) [F7492B3D] (AR v2)
Track 8 accurately ripped (confidence 8) [9BBEBBA6] (AR v2)
Track 9 accurately ripped (confidence 8) [D0C820E8] (AR v2)
Track 10 accurately ripped (confidence 8) [DF40B54F] (AR v2)
Track 11 accurately ripped (confidence 8) [BE6189DC] (AR v2)

All tracks accurately ripped

End of status report

==== Log checksum 80B6643654BCA049264D809E2BFE94C6F68E84C04FDBCA70B1B02A4B853C3F7C ====

foobar2000 1.2.1 / Dynamic Range Meter 1.1.1
log date: 2013-01-28 20:52:34

––––––––––––––––––––––––––––––––––––––––
Analyzed: Gipsy Kings / Allegria (466762 2)
––––––––––––––––––––––––––––––––––––––––

DR Peak RMS Duration Track
––––––––––––––––––––––––––––––––––––––––
DR13 -2.84 dB -18.26 dB 3:20 01-Pena Penita
DR14 -3.84 dB -20.34 dB 2:47 02-Allegria
DR14 -3.23 dB -20.41 dB 3:30 03-La Dona (Dediee a Brigitte Bardot)
DR13 -2.00 dB -19.31 dB 2:39 04-Solituda
DR18 -5.50 dB -28.09 dB 3:25 05-Sueno
DR13 -3.27 dB -19.36 dB 3:32 06-Djobi, Djoba
DR13 -2.98 dB -19.94 dB 3:51 07-Un Amor
DR13 -2.70 dB -18.91 dB 3:05 08-Papa, No Pega La Mama
DR12 -1.93 dB -19.53 dB 4:07 09-Pharaon
DR11 -3.17 dB -17.38 dB 3:37 10-Tristessa
DR14 -4.59 dB -22.96 dB 4:58 11-Recuerda
––––––––––––––––––––––––––––––––––––––––

Number of tracks: 11
Official DR value: DR14

Samplerate: 44100 Hz
Channels: 2
Bits per sample: 16
Bitrate: 747 kbps
Codec: FLAC
================================================================================

Gipsy Kings - Allegria (1982)

Gipsy Kings - Allegria (1982)

All thanks to original releaser - Olaf der Weisse

More interesting music in My Blog