Subcategories

Gipsy Kings - Este Mundo (1991)

Posted By: Designol
Gipsy Kings - Este Mundo (1991)

Gipsy Kings - Este Mundo (1991)
EAC | FLAC | Image (Cue&Log) ~ 299 Mb (incl 5%) | Mp3 (CBR320/Stereo) ~ 113 Mb (incl 5%) | Scans included
Genre: Flamenco, Rumba Catalana, World Fusion | Label: Columbia | # 468 648-10 | Time: 00:45:36

Formed in France, but rooted in Spanish flamenco tradition, the Gipsy Kings began incorporating pop into their buoyant Latin sound in the late 1980s, eventually leading to massive international success. Released in 1991, ESTE MUNDO finds the ensemble offering up a potent set of acoustic guitar-driven tunes that are marked by percussive strumming, dexterous lead work, and the husky, emotive vocals of bandleader Nicholas Reyes. The core group of six-string players is bolstered on some songs by bass, horns, and/or drums, giving ESTE MUNDO a vibrant atmosphere, particularly on songs such as the surging "Baila Me" and the dreamy title track. Although much of the album is upbeat, the Gipsy Kings also ease into a few mellow instrumental numbers, including the gentle "Lagrimas" and the slightly funky "Ternuras." One of the most consistent and confident outings in the Gipsy Kings' catalogue, ESTE MUNDO is sure to please flamenco aficionados and many other world music fans.


Tracklist:

01. Baila Me (03:47)
02. Sin Ella (04:00)
03. Habla Me (04:06)
04. Lagrimas (02:58)
05. Oy (04:51)
06. Mi Vida (03:52)
07. El Mauro (04:39)
08. No Volvere (03:52)
09. Furia (02:40)
10. Oh Maп (03:14)
11. Ternuras (03:26)
12. Este Mundo (04:12)


Exact Audio Copy V0.99 prebeta 5 from 4. May 2009

EAC extraction logfile from 4. June 2011, 0:02

Gipsy Kings / Este Mundo

Used drive : _NEC DVD_RW ND-4551A Adapter: 2 ID: 1

Read mode : Secure
Utilize accurate stream : Yes
Defeat audio cache : Yes
Make use of C2 pointers : No

Read offset correction : 48
Overread into Lead-In and Lead-Out : No
Fill up missing offset samples with silence : Yes
Delete leading and trailing silent blocks : No
Null samples used in CRC calculations : Yes
Used interface : Native Win32 interface for Win NT & 2000

Used output format : User Defined Encoder
Selected bitrate : 768 kBit/s
Quality : High
Add ID3 tag : No
Command line compressor : C:\Program Files\Exact Audio Copy\Flac\flac.exe
Additional command line options : -T "DATE=%y" -T "GENRE=%m" -8 -V %s


TOC of the extracted CD

Track | Start | Length | Start sector | End sector
––––––––––––––––––––––––––––-
1 | 0:00.00 | 3:47.05 | 0 | 17029
2 | 3:47.05 | 4:00.07 | 17030 | 35036
3 | 7:47.12 | 4:06.10 | 35037 | 53496
4 | 11:53.22 | 2:58.38 | 53497 | 66884
5 | 14:51.60 | 4:51.27 | 66885 | 88736
6 | 19:43.12 | 3:52.65 | 88737 | 106201
7 | 23:36.02 | 4:39.00 | 106202 | 127126
8 | 28:15.02 | 3:52.03 | 127127 | 144529
9 | 32:07.05 | 2:40.02 | 144530 | 156531
10 | 34:47.07 | 3:14.23 | 156532 | 171104
11 | 38:01.30 | 3:26.25 | 171105 | 186579
12 | 41:27.55 | 4:12.55 | 186580 | 205534


Range status and errors

Selected range

Filename C:\Program Files\Exact Audio Copy\Flac\Gipsy Kings - Este Mundo [dBS+1].wav

Peak level 91.6 %
Range quality 99.9 %
Test CRC 415648DB
Copy CRC 415648DB
Copy OK

No errors occurred


AccurateRip summary

Track 1 accurately ripped (confidence 5) [AF2147CF]
Track 2 accurately ripped (confidence 6) [0425FF15]
Track 3 accurately ripped (confidence 5) [B7C815CD]
Track 4 accurately ripped (confidence 5) [E43D21C6]
Track 5 accurately ripped (confidence 5) [936F1FF6]
Track 6 accurately ripped (confidence 5) [A4FA4BAC]
Track 7 accurately ripped (confidence 6) [9E653149]
Track 8 accurately ripped (confidence 6) [132B3C5C]
Track 9 accurately ripped (confidence 6) [0F40C3BE]
Track 10 accurately ripped (confidence 6) [24EFE0E4]
Track 11 accurately ripped (confidence 6) [ABBFF55E]
Track 12 accurately ripped (confidence 6) [9D2B5C22]

All tracks accurately ripped

End of status report

foobar2000 1.2.1 / Dynamic Range Meter 1.1.1
log date: 2013-01-31 03:02:14

––––––––––––––––––––––––––––––––––––––––
Analyzed: Gipsy Kings / Este Mundo
––––––––––––––––––––––––––––––––––––––––

DR Peak RMS Duration Track
––––––––––––––––––––––––––––––––––––––––
DR13 -1.52 dB -15.93 dB 3:47 01-Baila Me
DR12 -1.18 dB -15.93 dB 4:00 02-Sin Ella
DR11 -2.97 dB -17.17 dB 4:06 03-Habla Me
DR15 -4.35 dB -22.20 dB 2:59 04-Lagrimas
DR13 -1.99 dB -17.54 dB 4:51 05-Oy
DR14 -0.76 dB -18.25 dB 3:53 06-Mi Vida
DR13 -1.08 dB -16.15 dB 4:39 07-El Mauro
DR12 -2.44 dB -19.15 dB 3:52 08-No Volvere
DR15 -0.99 dB -17.80 dB 2:40 09-Furia
DR13 -2.51 dB -18.16 dB 3:14 10-Oh Maп
DR17 -2.04 dB -21.87 dB 3:26 11-Ternuras
DR14 -3.86 dB -21.70 dB 4:13 12-Este Mundo
––––––––––––––––––––––––––––––––––––––––

Number of tracks: 12
Official DR value: DR14

Samplerate: 44100 Hz
Channels: 2
Bits per sample: 16
Bitrate: 861 kbps
Codec: FLAC
================================================================================

Gipsy Kings - Este Mundo (1991)

Gipsy Kings - Este Mundo (1991)