Subcategories

Gipsy Kings - Rare & Unplugged (2003)

Posted By: Designol
Gipsy Kings - Rare & Unplugged (2003)

Gipsy Kings - Rare & Unplugged (2003)
EAC | FLAC | Image (Cue&Log) ~ 213 Mb (incl 5%) | Mp3 (CBR320/Stereo) ~ 87 Mb (incl 5%) | Scans included
Genre: Flamenco, Rumba Catalana, World Fusion | Label: New Sound 2000 | # NFM015 | Time: 00:29:03

The Gipsy Kings are largely responsible for bringing the joyful sounds of progressive pop-oriented flamenco to the world. The band started out in Arles, a village in southern France, during the '70s when brothers Nicolas and Andre Reyes, the sons of renowned flamenco artist Jose Reyes, teamed up with their cousins. Their eponymous 1988 album sold tremendously in France and appeared on the Top Ten album charts in 12 European countries, including England; in 1989, it spent 40 weeks on the U.S. charts and went gold, becoming one of the few Spanish albums to do so.
Biography
Wiki
Website


Tracklist:

01. Soy (03:07)
02. Sarah (02:41)
03. Bamboleo (01:59)
04. Valse Gitane (02:18)
05. Amoramor (02:30)
06. Rumba Del Stud (02:28)
07. I Know (03:14)
08. Bem Bem Maria (03:07)
09. Quiero Saber (03:56)
10. Duende (03:38)


Exact Audio Copy V0.99 prebeta 4 from 23. January 2008

Отчёт EAC об извлечении, выполненном 18. мая 2012, 7:12

Gipsy Kings / Rare & Unplugged

Дисковод: ASUS DRW-1814BL Adapter: 1 ID: 0

Режим чтения : Достоверность
Использование точного потока : Да
Отключение кэша аудио : Да
Использование указателей C2 : Нет

Коррекция смещения при чтении : 6
Способность читать области Lead-in и Lead-out : Нет
Заполнение пропущенных сэмплов тишиной : Да
Удаление блоков с тишиной в начале и конце : Нет
При вычислениях CRC использовались нулевые сэмплы : Да
Интерфейс : Установленный внешний ASPI-интерфейс

Выходной формат : Пользовательский кодировщик
Выбранный битрейт : 1024 kBit/s
Качество : Высокий
Добавление ID3-тэга : Нет
Утилита сжатия : C:\Program Files\Exact Audio Copy\FLAC\FLAC.EXE
Дополнительные параметры : -6 -V -T "ARTIST=%a" -T "TITLE=%t" -T "ALBUM=%g" -T "DATE=%y" -T "TRACKNUMBER=%n" -T "GENRE=%m" -T "COMMENT=%e" %s -o %d


TOC извлечённого CD

Трек | Старт | Длительность | Начальный сектор | Конечный сектор
––––––––––––––––––––––––––––––––––-
1 | 0:00.00 | 3:07.44 | 0 | 14068
2 | 3:07.44 | 2:41.35 | 14069 | 26178
3 | 5:49.04 | 1:59.67 | 26179 | 35170
4 | 7:48.71 | 2:18.20 | 35171 | 45540
5 | 10:07.16 | 2:30.61 | 45541 | 56851
6 | 12:38.02 | 2:28.21 | 56852 | 67972
7 | 15:06.23 | 3:14.63 | 67973 | 82585
8 | 18:21.11 | 3:07.10 | 82586 | 96620
9 | 21:28.21 | 3:56.45 | 96621 | 114365
10 | 25:24.66 | 3:38.70 | 114366 | 130785


Характеристики диапазона извлечения и сообщения об ошибках

Выбранный диапазон

Имя файла H:\loSSleSS\gypsy kings'03\Gipsy Kings - Rare & Unplugged.wav

Пиковый уровень 83.5 %
Качество диапазона 100.0 %
CRC теста 7FFCCD56
CRC копии 7FFCCD56
Копирование… OK

Ошибок не произошло


AccurateRip: сводка

Трек 1 точное извлечение (доверие 3) [1A506A60]
Трек 2 точное извлечение (доверие 3) [13A6C72B]
Трек 3 точное извлечение (доверие 3) [1E6F6159]
Трек 4 точное извлечение (доверие 3) [E455B43A]
Трек 5 точное извлечение (доверие 3) [FFAA04F6]
Трек 6 точное извлечение (доверие 3) [F0BEE99B]
Трек 7 точное извлечение (доверие 3) [CD263D23]
Трек 8 точное извлечение (доверие 3) [6367EEDB]
Трек 9 точное извлечение (доверие 3) [8970DE0F]
Трек 10 точное извлечение (доверие 3) [D4DBB60B]

Все треки извлечены точно

Конец отчёта

foobar2000 1.2.1 / Dynamic Range Meter 1.1.1
log date: 2013-01-29 21:48:02

––––––––––––––––––––––––––––––––––––––––
Analyzed: Gipsy Kings / Rare & Unplugged
––––––––––––––––––––––––––––––––––––––––

DR Peak RMS Duration Track
––––––––––––––––––––––––––––––––––––––––
DR8 -2.25 dB -12.42 dB 3:08 01-Soy
DR13 -2.33 dB -16.98 dB 2:41 02-Sarah
DR8 -1.75 dB -12.68 dB 2:00 03-Bamboleo
DR11 -2.31 dB -15.11 dB 2:18 04-Valse Gitane
DR10 -2.24 dB -13.93 dB 2:31 05-Amoramor
DR9 -1.66 dB -12.37 dB 2:28 06-Rumba Del Stud
DR7 -1.56 dB -11.62 dB 3:15 07-I Know
DR10 -1.92 dB -13.35 dB 3:07 08-Bem Bem Maria
DR10 -2.23 dB -14.42 dB 3:57 09-Quiero Saber
DR15 -2.24 dB -20.94 dB 3:39 10-Duende
––––––––––––––––––––––––––––––––––––––––

Number of tracks: 10
Official DR value: DR10

Samplerate: 44100 Hz
Channels: 2
Bits per sample: 16
Bitrate: 896 kbps
Codec: FLAC
================================================================================