Subcategories

Madonna feat. Nicky Minaj and M.I.A. - Give Me All Your Luvin (2012)

Posted By: FatGarry
Madonna feat. Nicky Minaj and M.I.A. - Give Me All Your Luvin (2012)

Madonna feat. Nicky Minaj and M.I.A. - Give Me All Your Luvin (2012)
MP4 | 1280X720 | AVC 29.970 fps | AAC, 44100Hz, stereo, 152 kbps | 3:44 min | 82 MB
Pop, Hip-hop



General
Format : MPEG-4
Format profile : Base Media / Version 2
Codec ID : mp42
File size : 82.8 MiB
Duration : 3mn 44s
Overall bit rate : 3 089 Kbps

Video
ID : 1
Format : AVC
Format/Info : Advanced Video Codec
Format profile : High@L3.1
Format settings, CABAC : Yes
Format settings, ReFrames : 1 frame
Codec ID : avc1
Codec ID/Info : Advanced Video Coding
Duration : 3mn 44s
Bit rate mode : Variable
Bit rate : 2 935 Kbps
Maximum bit rate : 6 034 Kbps
Width : 1 280 pixels
Height : 720 pixels
Display aspect ratio : 16:9
Frame rate mode : Constant
Frame rate : 29.970 fps
Color space : YUV
Chroma subsampling : 4:2:0
Bit depth : 8 bits
Scan type : Progressive
Bits/(Pixel*Frame) : 0.106
Stream size : 78.6 MiB (95%)
Tagged date : UTC 2012-02-02 04:01:22

Audio
ID : 2
Format : AAC
Format/Info : Advanced Audio Codec
Format version : Version 4
Format profile : LC
Format settings, SBR : No
Codec ID : 40
Duration : 3mn 44s
Bit rate mode : Variable
Bit rate : 152 Kbps
Maximum bit rate : 178 Kbps
Channel(s) : 2 channels
Channel positions : Front: L R
Sampling rate : 44.1 KHz
Stream size : 4.07 MiB (5%)


Madonna feat. Nicky Minaj and M.I.A. - Give Me All Your Luvin (2012)


Please visit my blog on AvaxHome!

Please send me a PM if any link is broken