Subcategories

Glazunov: Complete Symphonies & Concertos - Serebrier (2012)

Posted By: peotuvave
Glazunov: Complete Symphonies & Concertos - Serebrier (2012)

Glazunov: Complete Symphonies & Concertos - Serebrier (2012)
EAC Rip | Flac (Image + cue + log) | 8 CDs | Full Scans | 2.31 GB
Genre: Classical | Label: Warner Classics | Catalog Number: 664674

Glazunov’s symphonies hover on the edge of the repertoire. You almost never see them programmed in live concerts, but every couple of decades a complete cycle comes out. Curiously, none of the Russian recordings are very good. The performances are uniformly heavy and dull, whereas Glazunov’s music, symphonic or not, demands a balletic lilt and a light touch. His symphonies are full of good tunes and are beautifully crafted, but despite exciting moments they aren’t terribly dramatic and so need to played swiftly and vivaciously. The sound clip below offers a sample of the delightful “toy” music from trio of the Fifth Symphony’s scherzo. It’s just a taste of the many captivating moments you’ll find in these works.

Composer: Alexander Glazunov
Performer: Rachel Barton Pine, Wenn-Sinn Yang, Alexander Romanovsky, Marc Chisson, …
Conductor: José Serebrier

Reviews: Previously, the best Glazunov cycle available was Järvi’s on Orfeo. It had the right energy, but was very expensive. Some discs (all at full price) contained a single symphony and the fillers, a couple of concert waltzes, were most ungenerous. This box features performances, ironically with one of Järvi’s previous orchestras, that easily set the new standard for these pieces. Serebrier plays the music like he really cares about it, touchingly in the slow movements, but with real Russian fire in the first movements and finales. The concertos are equally well done, with Rachel Barton Pine superb in the Violin Concerto, and Alexander Romanovsky confidently swaggering through the two piano concertos. These latter works are scarcely known, but they are both excellent and deserve to enter the repertoire.

In addition to these major pieces, you also get all of the shorter concerted works (including the Saxophone Concerto), the tone poems La mer and the Introduction and Dance from Salome, a superb rendition of The Seasons, and an excellent extended suite from the ballet Raymonda. This box, in short, gives you all of the music that you’ll ever need if you want to get the most important Glazunov works in one handy package. You even get the unfinished Ninth Symphony–quite a deal.

Tracklisting:

1. Symphony no 3 in D major, Op. 33 by Alexander Glazunov
Conductor: José Serebrier
Period: Romantic
Written: 1890; Russia
Venue: Henry Wood Hall, Glasgow
Length: 33 Minutes 37 Secs.

2. Symphony No. 9 in D major (incomplete; one movement; orchestrated by G. Yudin) by Alexander Glazunov
Conductor: José Serebrier
Period: Post-Romantic
Written: 1910
Venue: Henry Wood Hall, Glasgow
Length: 10 Minutes 31 Secs.

3. Symphony no 2 in F sharp minor, Op. 16 by Alexander Glazunov
Conductor: José Serebrier
Period: Romantic
Written: 1886; Russia
Venue: Henry Wood Hall, Glasgow
Length: 32 Minutes 0 Secs.

4. Symphony no 1 in E major, Op. 5 "Slavic" by Alexander Glazunov
Conductor: José Serebrier
Period: Romantic
Written: 1881-1882; Russia
Venue: Henry Wood Hall, Glasgow
Length: 33 Minutes 33 Secs.

5. Symphony no 7 in F major, Op. 77 "Pastorale" by Alexander Glazunov
Conductor: José Serebrier
Period: Romantic
Written: 1902; Russia
Venue: Henry Wood Hall, Glasgow
Length: 35 Minutes 35 Secs.

6. Symphony no 5 in B flat major, Op. 55 by Alexander Glazunov
Conductor: José Serebrier
Period: Romantic
Written: 1895; Russia
Venue: Henry Wood Hall, Glasgow
Length: 32 Minutes 9 Secs.

7. The Seasons, Op. 67 by Alexander Glazunov
Conductor: José Serebrier
Period: Romantic
Written: 1899; Russia
Venue: Henry Wood Hall, Glasgow
Length: 2 Minutes 4 Secs.

8. Symphony no 6 in C minor, Op. 58 by Alexander Glazunov
Conductor: José Serebrier
Period: Romantic
Written: 1896; Russia
Venue: Henry Wood Hall, Glasgow
Length: 35 Minutes 14 Secs.

9. The Sea (More), fantasy for orchestra in E major, Op. 28 by Alexander Glazunov
Conductor: José Serebrier
Period: Post-Romantic
Written: 1889
Venue: Henry Wood Hall, Glasgow
Length: 15 Minutes 27 Secs.

10. Salomé, incidental music, Op. 90 by Alexander Glazunov
Conductor: José Serebrier
Period: Post-Romantic
Written: 1908
Venue: Henry Wood Hall, Glasgow
Length: 15 Minutes 20 Secs.

11. Symphony no 8 in E flat major, Op. 83 by Alexander Glazunov
Conductor: José Serebrier
Period: Romantic
Written: 1906; Russia
Venue: Henry Wood Hall, Glasgow
Length: 41 Minutes 56 Secs.

12. Raymonda Suite, Op. 57a by Alexander Glazunov
Conductor: José Serebrier
Period: Romantic
Written: 1898; Russia
Venue: Henry Wood Hall, Glasgow
Length: 24 Minutes 35 Secs.

13. Concerto for Violin in A minor, Op. 82 by Alexander Glazunov
Performer: Rachel Barton Pine (Violin)
Conductor: José Serebrier
Period: Romantic
Written: 1904; Russia
Venue: Svetlanov Hall, Moscow International Per
Length: 9 Minutes 57 Secs.

14. Chant du ménestrel for Cello and Orchestra, Op. 71 by Alexander Glazunov
Performer: Wenn-Sinn Yang (Cello)
Conductor: José Serebrier
Period: Romantic
Written: 1900; Russia
Venue: Svetlanov Hall, Moscow International Per
Length: 3 Minutes 58 Secs.

15. Concerto for Piano no 2 in B major, Op. 100 by Alexander Glazunov
Performer: Alexander Romanovsky (Piano)
Conductor: José Serebrier
Period: Romantic
Written: 1917; USSR
Venue: Svetlanov Hall, Moscow International Per
Length: 18 Minutes 35 Secs.

16. Concerto for Alto Saxophone in E flat major, Op. 109 by Alexander Glazunov
Performer: Marc Chisson ()
Conductor: José Serebrier
Period: Romantic
Written: 1934; USSR
Venue: Svetlanov Hall, Moscow International Per
Length: 12 Minutes 29 Secs.

17. Concerto for Piano no 1 in F minor, Op. 92 by Alexander Glazunov
Performer: Alexander Romanovsky (Piano)
Conductor: José Serebrier
Period: Romantic
Written: 1910-1911; Russia
Venue: Svetlanov Hall, Moscow International Per
Length: 28 Minutes 15 Secs.

18. Rêverie for Horn and Piano, Op. 24 by Alexander Glazunov
Performer: Alexey Serov (French Horn)
Conductor: José Serebrier
Period: Romantic
Written: 1890; Russia
Venue: Svetlanov Hall, Moscow International Per
Length: 3 Minutes 17 Secs.

19. Concerto ballata for Cello and Orchestra in C major, Op. 108 by Alexander Glazunov
Performer: Wenn-Sinn Yang (Cello)
Conductor: José Serebrier
Period: Romantic
Written: 1931; USSR
Venue: Svetlanov Hall, Moscow International Per
Length: 5 Minutes 33 Secs.

20. Meditation for Violin and Piano in D major, Op. 32 by Alexander Glazunov
Performer: Rachel Barton Pine (Violin)
Conductor: José Serebrier
Period: Romantic
Written: 1891; Russia
Venue: Svetlanov Hall, Moscow International Per
Length: 4 Minutes 10 Secs.

Exact Audio Copy V1.0 beta 3 from 29. August 2011

EAC extraction logfile from 13. July 2012, 13:19

Royal Scottish National Orchestra / Glazunov - Complete Symphonies and Concertos - Serebier (CD 1)

Used drive : HL-DT-STDVDRAM GSA-H10A Adapter: 0 ID: 0

Read mode : Secure
Utilize accurate stream : Yes
Defeat audio cache : Yes
Make use of C2 pointers : No

Read offset correction : 667
Overread into Lead-In and Lead-Out : No
Fill up missing offset samples with silence : Yes
Delete leading and trailing silent blocks : No
Null samples used in CRC calculations : Yes
Used interface : Native Win32 interface for Win NT & 2000

Used output format : User Defined Encoder
Selected bitrate : 1024 kBit/s
Quality : High
Add ID3 tag : No
Command line compressor : C:\Program Files\Exact Audio Copy\Flac\flac.exe
Additional command line options : -8 -V -T "TITLE=%title%" -T "ARTIST=%artist%" -T "ALBUMARTIST=%albumartist%" -T "ALBUM=%albumtitle%" -T "DATE=%year%" -T "TRACKNUMBER=%tracknr%" -T "TRACKTOTAL=%numtracks%" -T "GENRE=%genre%" -T "COMMENT=%comment%" -T "PERFORMER=%albuminterpret%" -T "COMPOSER=%composer%" %source% -o %dest%


TOC of the extracted CD

Track | Start | Length | Start sector | End sector
––––––––––––––––––––––––––––-
1 | 0:00.00 | 11:54.09 | 0 | 53558
2 | 11:54.09 | 8:58.09 | 53559 | 93917
3 | 20:52.18 | 14:34.09 | 93918 | 159476
4 | 35:26.27 | 12:53.38 | 159477 | 217489
5 | 48:19.65 | 10:31.26 | 217490 | 264840


Range status and errors

Selected range

Filename F:\Ripped general\[9737] Glazunov - Complete Symphonies and Concertos - Serebier\cd1\Glazunov - Complete Symphonies and Concertos - Serebier (CD 1).wav

Peak level 100.0 %
Extraction speed 7.4 X
Range quality 100.0 %
Test CRC D4876227
Copy CRC D4876227
Copy OK

No errors occurred


AccurateRip summary

Track 1 accurately ripped (confidence 4) [10646AF4] (AR v1)
Track 2 accurately ripped (confidence 4) [42D598CE] (AR v1)
Track 3 accurately ripped (confidence 4) [A771C81D] (AR v1)
Track 4 accurately ripped (confidence 4) [A3C91BED] (AR v1)
Track 5 accurately ripped (confidence 4) [42F7C149] (AR v1)

All tracks accurately ripped

End of status report

Exact Audio Copy V1.0 beta 3 from 29. August 2011

EAC extraction logfile from 13. July 2012, 14:16

Royal Scottish National Orchestra / Glazunov - Complete Symphonies and Concertos - Serebier (CD 2)

Used drive : HL-DT-STDVDRAM GSA-H10A Adapter: 0 ID: 0

Read mode : Secure
Utilize accurate stream : Yes
Defeat audio cache : Yes
Make use of C2 pointers : No

Read offset correction : 667
Overread into Lead-In and Lead-Out : No
Fill up missing offset samples with silence : Yes
Delete leading and trailing silent blocks : No
Null samples used in CRC calculations : Yes
Used interface : Native Win32 interface for Win NT & 2000

Used output format : User Defined Encoder
Selected bitrate : 1024 kBit/s
Quality : High
Add ID3 tag : No
Command line compressor : C:\Program Files\Exact Audio Copy\Flac\flac.exe
Additional command line options : -8 -V -T "TITLE=%title%" -T "ARTIST=%artist%" -T "ALBUMARTIST=%albumartist%" -T "ALBUM=%albumtitle%" -T "DATE=%year%" -T "TRACKNUMBER=%tracknr%" -T "TRACKTOTAL=%numtracks%" -T "GENRE=%genre%" -T "COMMENT=%comment%" -T "PERFORMER=%albuminterpret%" -T "COMPOSER=%composer%" %source% -o %dest%


TOC of the extracted CD

Track | Start | Length | Start sector | End sector
––––––––––––––––––––––––––––-
1 | 0:00.00 | 13:27.17 | 0 | 60541
2 | 13:27.17 | 11:01.69 | 60542 | 110185
3 | 24:29.11 | 7:32.69 | 110186 | 144154
4 | 32:02.05 | 11:28.01 | 144155 | 195755
5 | 43:30.06 | 10:02.43 | 195756 | 240948
6 | 53:32.49 | 4:58.67 | 240949 | 263365
7 | 58:31.41 | 9:29.40 | 263366 | 306080
8 | 68:01.06 | 9:44.62 | 306081 | 349942


Range status and errors

Selected range

Filename F:\Ripped general\[9737] Glazunov - Complete Symphonies and Concertos - Serebier\cd2\Glazunov - Complete Symphonies and Concertos - Serebier (CD 2).wav

Peak level 100.0 %
Extraction speed 6.3 X
Range quality 100.0 %
Test CRC 87E23C9A
Copy CRC 87E23C9A
Copy OK

No errors occurred


AccurateRip summary

Track 1 cannot be verified as accurate (confidence 4) [328D5177], AccurateRip returned [5A625019] (AR v2)
Track 2 cannot be verified as accurate (confidence 4) [73C609DF], AccurateRip returned [CAB8AA4C] (AR v2)
Track 3 cannot be verified as accurate (confidence 4) [C632A571], AccurateRip returned [AC999FE5] (AR v2)
Track 4 cannot be verified as accurate (confidence 4) [C3CE90BF], AccurateRip returned [0E84A307] (AR v2)
Track 5 cannot be verified as accurate (confidence 4) [4A43C08A], AccurateRip returned [6CD302EF] (AR v2)
Track 6 cannot be verified as accurate (confidence 4) [9EE74896], AccurateRip returned [CB90AEF9] (AR v2)
Track 7 cannot be verified as accurate (confidence 4) [E35EE0BF], AccurateRip returned [CC43EE08] (AR v2)
Track 8 cannot be verified as accurate (confidence 4) [60E44386], AccurateRip returned [FE5321B4] (AR v2)

No tracks could be verified as accurate
You may have a different pressing from the one(s) in the database

End of status report

Exact Audio Copy V1.0 beta 3 from 29. August 2011

EAC extraction logfile from 13. July 2012, 15:54

José Serebrier / Glazunov - Complete Symphonies and Concertos - Serebier (CD 3)

Used drive : HL-DT-STDVDRAM GSA-H10A Adapter: 0 ID: 0

Read mode : Secure
Utilize accurate stream : Yes
Defeat audio cache : Yes
Make use of C2 pointers : No

Read offset correction : 667
Overread into Lead-In and Lead-Out : No
Fill up missing offset samples with silence : Yes
Delete leading and trailing silent blocks : No
Null samples used in CRC calculations : Yes
Used interface : Native Win32 interface for Win NT & 2000

Used output format : User Defined Encoder
Selected bitrate : 1024 kBit/s
Quality : High
Add ID3 tag : No
Command line compressor : C:\Program Files\Exact Audio Copy\Flac\flac.exe
Additional command line options : -8 -V -T "TITLE=%title%" -T "ARTIST=%artist%" -T "ALBUMARTIST=%albumartist%" -T "ALBUM=%albumtitle%" -T "DATE=%year%" -T "TRACKNUMBER=%tracknr%" -T "TRACKTOTAL=%numtracks%" -T "GENRE=%genre%" -T "COMMENT=%comment%" -T "PERFORMER=%albuminterpret%" -T "COMPOSER=%composer%" %source% -o %dest%


TOC of the extracted CD

Track | Start | Length | Start sector | End sector
––––––––––––––––––––––––––––-
1 | 0:00.00 | 14:48.65 | 0 | 66664
2 | 14:48.65 | 5:34.43 | 66665 | 91757
3 | 20:23.33 | 13:15.53 | 91758 | 151435
4 | 33:39.11 | 8:34.49 | 151436 | 190034
5 | 42:13.60 | 11:19.60 | 190035 | 241019
6 | 53:33.45 | 5:30.73 | 241020 | 265842
7 | 59:04.43 | 10:52.64 | 265843 | 314806


Range status and errors

Selected range

Filename F:\Ripped general\[9737] Glazunov - Complete Symphonies and Concertos - Serebier\cd3\Glazunov - Complete Symphonies and Concertos - Serebier (CD 3).wav

Peak level 98.8 %
Extraction speed 7.5 X
Range quality 100.0 %
Test CRC 5F1F9687
Copy CRC 5F1F9687
Copy OK

No errors occurred


AccurateRip summary

Track 1 accurately ripped (confidence 7) [51A90D28] (AR v1)
Track 2 accurately ripped (confidence 7) [AF06C743] (AR v1)
Track 3 accurately ripped (confidence 7) [593C096D] (AR v1)
Track 4 accurately ripped (confidence 7) [F5F80967] (AR v1)
Track 5 accurately ripped (confidence 8) [81FBA46C] (AR v1)
Track 6 accurately ripped (confidence 8) [1022AF10] (AR v1)
Track 7 accurately ripped (confidence 8) [4A010084] (AR v1)

All tracks accurately ripped

End of status report

Exact Audio Copy V1.0 beta 3 from 29. August 2011

EAC extraction logfile from 13. July 2012, 16:16

José Serebrier / Glazunov - Complete Symphonies and Concertos - Serebier (CD 4)

Used drive : HL-DT-STDVDRAM GSA-H10A Adapter: 0 ID: 0

Read mode : Secure
Utilize accurate stream : Yes
Defeat audio cache : Yes
Make use of C2 pointers : No

Read offset correction : 667
Overread into Lead-In and Lead-Out : No
Fill up missing offset samples with silence : Yes
Delete leading and trailing silent blocks : No
Null samples used in CRC calculations : Yes
Used interface : Native Win32 interface for Win NT & 2000

Used output format : User Defined Encoder
Selected bitrate : 1024 kBit/s
Quality : High
Add ID3 tag : No
Command line compressor : C:\Program Files\Exact Audio Copy\Flac\flac.exe
Additional command line options : -8 -V -T "TITLE=%title%" -T "ARTIST=%artist%" -T "ALBUMARTIST=%albumartist%" -T "ALBUM=%albumtitle%" -T "DATE=%year%" -T "TRACKNUMBER=%tracknr%" -T "TRACKTOTAL=%numtracks%" -T "GENRE=%genre%" -T "COMMENT=%comment%" -T "PERFORMER=%albuminterpret%" -T "COMPOSER=%composer%" %source% -o %dest%


TOC of the extracted CD

Track | Start | Length | Start sector | End sector
––––––––––––––––––––––––––––-
1 | 0:00.00 | 11:39.69 | 0 | 52493
2 | 11:39.69 | 4:53.53 | 52494 | 74521
3 | 16:33.47 | 9:23.57 | 74522 | 116803
4 | 25:57.29 | 6:54.64 | 116804 | 147917
5 | 32:52.18 | 2:04.71 | 147918 | 157288
6 | 34:57.14 | 1:27.30 | 157289 | 163843
7 | 36:24.44 | 0:52.38 | 163844 | 167781
8 | 37:17.07 | 1:09.25 | 167782 | 172981
9 | 38:26.32 | 0:51.13 | 172982 | 176819
10 | 39:17.45 | 2:57.39 | 176820 | 190133
11 | 42:15.09 | 5:07.73 | 190134 | 213231
12 | 47:23.07 | 2:05.01 | 213232 | 222607
13 | 49:28.08 | 2:01.22 | 222608 | 231704
14 | 51:29.30 | 2:15.05 | 231705 | 241834
15 | 53:44.35 | 1:06.63 | 241835 | 246847
16 | 54:51.23 | 3:46.63 | 246848 | 263860
17 | 58:38.11 | 4:06.22 | 263861 | 282332
18 | 62:44.33 | 4:17.67 | 282333 | 301674
19 | 67:02.25 | 3:26.14 | 301675 | 317138


Range status and errors

Selected range

Filename F:\Ripped general\[9737] Glazunov - Complete Symphonies and Concertos - Serebier\cd4\Glazunov - Complete Symphonies and Concertos - Serebier (CD 4).wav

Peak level 100.0 %
Extraction speed 7.7 X
Range quality 100.0 %
Test CRC 61DEE6C7
Copy CRC 61DEE6C7
Copy OK

No errors occurred


AccurateRip summary

Track 1 accurately ripped (confidence 9) [264A4685] (AR v1)
Track 2 accurately ripped (confidence 9) [1161658A] (AR v1)
Track 3 accurately ripped (confidence 9) [E7A6336A] (AR v1)
Track 4 accurately ripped (confidence 9) [268D8077] (AR v1)
Track 5 accurately ripped (confidence 9) [66ED4706] (AR v1)
Track 6 accurately ripped (confidence 9) [FA7C28AB] (AR v1)
Track 7 accurately ripped (confidence 9) [A919D29F] (AR v1)
Track 8 accurately ripped (confidence 9) [FAF7CB4A] (AR v1)
Track 9 accurately ripped (confidence 9) [73810A8C] (AR v1)
Track 10 accurately ripped (confidence 9) [BAAA70D7] (AR v1)
Track 11 accurately ripped (confidence 9) [3739B89F] (AR v1)
Track 12 accurately ripped (confidence 9) [79AF9F02] (AR v1)
Track 13 accurately ripped (confidence 9) [28A8D502] (AR v1)
Track 14 accurately ripped (confidence 9) [8CC70F56] (AR v1)
Track 15 accurately ripped (confidence 9) [75E4A25F] (AR v1)
Track 16 accurately ripped (confidence 9) [73EF5FF8] (AR v1)
Track 17 accurately ripped (confidence 9) [9BCDBFFD] (AR v1)
Track 18 accurately ripped (confidence 9) [9D123771] (AR v1)
Track 19 accurately ripped (confidence 9) [60FB6BF5] (AR v1)

All tracks accurately ripped

End of status report

Exact Audio Copy V1.0 beta 3 from 29. August 2011

EAC extraction logfile from 13. July 2012, 16:39

José Serebrier / Glazunov - Complete Symphonies and Concertos - Serebier (CD 5)

Used drive : HL-DT-STDVDRAM GSA-H10A Adapter: 0 ID: 0

Read mode : Secure
Utilize accurate stream : Yes
Defeat audio cache : Yes
Make use of C2 pointers : No

Read offset correction : 667
Overread into Lead-In and Lead-Out : No
Fill up missing offset samples with silence : Yes
Delete leading and trailing silent blocks : No
Null samples used in CRC calculations : Yes
Used interface : Native Win32 interface for Win NT & 2000

Used output format : User Defined Encoder
Selected bitrate : 1024 kBit/s
Quality : High
Add ID3 tag : No
Command line compressor : C:\Program Files\Exact Audio Copy\Flac\flac.exe
Additional command line options : -8 -V -T "TITLE=%title%" -T "ARTIST=%artist%" -T "ALBUMARTIST=%albumartist%" -T "ALBUM=%albumtitle%" -T "DATE=%year%" -T "TRACKNUMBER=%tracknr%" -T "TRACKTOTAL=%numtracks%" -T "GENRE=%genre%" -T "COMMENT=%comment%" -T "PERFORMER=%albuminterpret%" -T "COMPOSER=%composer%" %source% -o %dest%


TOC of the extracted CD

Track | Start | Length | Start sector | End sector
––––––––––––––––––––––––––––-
1 | 0:00.00 | 10:09.53 | 0 | 45727
2 | 10:09.53 | 10:55.23 | 45728 | 94875
3 | 21:05.01 | 4:49.73 | 94876 | 116623
4 | 25:54.74 | 10:01.70 | 116624 | 161768
5 | 35:56.69 | 15:27.48 | 161769 | 231341
6 | 51:24.42 | 8:08.48 | 231342 | 267989
7 | 59:33.15 | 7:12.42 | 267990 | 300431


Range status and errors

Selected range

Filename F:\Ripped general\[9737] Glazunov - Complete Symphonies and Concertos - Serebier\cd5\Glazunov - Complete Symphonies and Concertos - Serebier (CD 5).wav

Peak level 100.0 %
Extraction speed 7.4 X
Range quality 100.0 %
Test CRC 1F70A827
Copy CRC 1F70A827
Copy OK

No errors occurred


AccurateRip summary

Track 1 accurately ripped (confidence 5) [03811A31] (AR v1)
Track 2 accurately ripped (confidence 5) [A016ACDB] (AR v1)
Track 3 accurately ripped (confidence 5) [CB4E8E60] (AR v1)
Track 4 accurately ripped (confidence 5) [DEA0F842] (AR v1)
Track 5 accurately ripped (confidence 5) [83026744] (AR v1)
Track 6 accurately ripped (confidence 5) [0B412A7E] (AR v1)
Track 7 accurately ripped (confidence 4) [F7607D94] (AR v1)

All tracks accurately ripped

End of status report

Exact Audio Copy V1.0 beta 3 from 29. August 2011

EAC extraction logfile from 13. July 2012, 17:02

José Serebrier / Glazunov - Complete Symphonies and Concertos - Serebier (CD 6)

Used drive : HL-DT-STDVDRAM GSA-H10A Adapter: 0 ID: 0

Read mode : Secure
Utilize accurate stream : Yes
Defeat audio cache : Yes
Make use of C2 pointers : No

Read offset correction : 667
Overread into Lead-In and Lead-Out : No
Fill up missing offset samples with silence : Yes
Delete leading and trailing silent blocks : No
Null samples used in CRC calculations : Yes
Used interface : Native Win32 interface for Win NT & 2000

Used output format : User Defined Encoder
Selected bitrate : 1024 kBit/s
Quality : High
Add ID3 tag : No
Command line compressor : C:\Program Files\Exact Audio Copy\Flac\flac.exe
Additional command line options : -8 -V -T "TITLE=%title%" -T "ARTIST=%artist%" -T "ALBUMARTIST=%albumartist%" -T "ALBUM=%albumtitle%" -T "DATE=%year%" -T "TRACKNUMBER=%tracknr%" -T "TRACKTOTAL=%numtracks%" -T "GENRE=%genre%" -T "COMMENT=%comment%" -T "PERFORMER=%albuminterpret%" -T "COMPOSER=%composer%" %source% -o %dest%


TOC of the extracted CD

Track | Start | Length | Start sector | End sector
––––––––––––––––––––––––––––-
1 | 0:00.00 | 10:38.15 | 0 | 47864
2 | 10:38.15 | 12:40.18 | 47865 | 104882
3 | 23:18.33 | 6:37.22 | 104883 | 134679
4 | 29:55.55 | 12:41.17 | 134680 | 191771
5 | 42:36.72 | 2:12.25 | 191772 | 201696
6 | 44:49.22 | 4:16.13 | 201697 | 220909
7 | 49:05.35 | 1:40.55 | 220910 | 228464
8 | 50:46.15 | 1:12.03 | 228465 | 233867
9 | 51:58.18 | 0:52.58 | 233868 | 237825
10 | 52:51.01 | 1:04.53 | 237826 | 242678
11 | 53:55.54 | 2:08.01 | 242679 | 252279
12 | 56:03.55 | 1:20.23 | 252280 | 258302
13 | 57:24.03 | 4:42.31 | 258303 | 279483
14 | 62:06.34 | 4:09.18 | 279484 | 298176
15 | 66:15.52 | 4:54.48 | 298177 | 320274
16 | 71:10.25 | 1:04.69 | 320275 | 325143
17 | 72:15.19 | 0:52.66 | 325144 | 329109
18 | 73:08.10 | 0:48.67 | 329110 | 332776
19 | 73:57.02 | 4:50.55 | 332777 | 354581


Range status and errors

Selected range

Filename F:\Ripped general\[9737] Glazunov - Complete Symphonies and Concertos - Serebier\cd6\Glazunov - Complete Symphonies and Concertos - Serebier (CD 6).wav

Peak level 99.6 %
Extraction speed 7.7 X
Range quality 100.0 %
Test CRC F053D8F2
Copy CRC F053D8F2
Copy OK

No errors occurred


AccurateRip summary

Track 1 cannot be verified as accurate (confidence 6) [B2E30137], AccurateRip returned [FBBFF061] (AR v2)
Track 2 cannot be verified as accurate (confidence 6) [F338FBB4], AccurateRip returned [0178C65D] (AR v2)
Track 3 cannot be verified as accurate (confidence 6) [F35EC0D8], AccurateRip returned [DD20BF1C] (AR v2)
Track 4 cannot be verified as accurate (confidence 6) [B452D4D5], AccurateRip returned [184E6EB8] (AR v2)
Track 5 cannot be verified as accurate (confidence 6) [0D531709], AccurateRip returned [4FA8CA0F] (AR v2)
Track 6 cannot be verified as accurate (confidence 6) [7A2A4C15], AccurateRip returned [E4072331] (AR v2)
Track 7 cannot be verified as accurate (confidence 6) [E3A632CD], AccurateRip returned [A20AD705] (AR v2)
Track 8 cannot be verified as accurate (confidence 6) [8575AD0A], AccurateRip returned [BE3D85CC] (AR v2)
Track 9 cannot be verified as accurate (confidence 6) [80524B01], AccurateRip returned [EE94BEE5] (AR v2)
Track 10 cannot be verified as accurate (confidence 6) [A9A4D740], AccurateRip returned [89622CD9] (AR v2)
Track 11 cannot be verified as accurate (confidence 6) [937FEF7A], AccurateRip returned [60B722F2] (AR v2)
Track 12 cannot be verified as accurate (confidence 5) [26E8D478], AccurateRip returned [8E04C105] (AR v2)
Track 13 cannot be verified as accurate (confidence 6) [32D70348], AccurateRip returned [450F03A4] (AR v2)
Track 14 cannot be verified as accurate (confidence 6) [654D27A3], AccurateRip returned [570A2861] (AR v2)
Track 15 cannot be verified as accurate (confidence 6) [10F3EB07], AccurateRip returned [A2FF354F] (AR v2)
Track 16 cannot be verified as accurate (confidence 6) [28946C12], AccurateRip returned [16C5BD66] (AR v2)
Track 17 cannot be verified as accurate (confidence 6) [0FA89940], AccurateRip returned [CE627EC2] (AR v2)
Track 18 cannot be verified as accurate (confidence 6) [EB42A76F], AccurateRip returned [FE69DA0A] (AR v2)
Track 19 cannot be verified as accurate (confidence 6) [06C0B916], AccurateRip returned [7FD2C2AE] (AR v2)

No tracks could be verified as accurate
You may have a different pressing from the one(s) in the database

End of status report

Exact Audio Copy V1.0 beta 3 from 29. August 2011

EAC extraction logfile from 13. July 2012, 17:20

José Serebrier / Glazunov - Complete Symphonies and Concertos - Serebier (CD 7)

Used drive : HL-DT-STDVDRAM GSA-H10A Adapter: 0 ID: 0

Read mode : Secure
Utilize accurate stream : Yes
Defeat audio cache : Yes
Make use of C2 pointers : No

Read offset correction : 667
Overread into Lead-In and Lead-Out : No
Fill up missing offset samples with silence : Yes
Delete leading and trailing silent blocks : No
Null samples used in CRC calculations : Yes
Used interface : Native Win32 interface for Win NT & 2000

Used output format : User Defined Encoder
Selected bitrate : 1024 kBit/s
Quality : High
Add ID3 tag : No
Command line compressor : C:\Program Files\Exact Audio Copy\Flac\flac.exe
Additional command line options : -8 -V -T "TITLE=%title%" -T "ARTIST=%artist%" -T "ALBUMARTIST=%albumartist%" -T "ALBUM=%albumtitle%" -T "DATE=%year%" -T "TRACKNUMBER=%tracknr%" -T "TRACKTOTAL=%numtracks%" -T "GENRE=%genre%" -T "COMMENT=%comment%" -T "PERFORMER=%albuminterpret%" -T "COMPOSER=%composer%" %source% -o %dest%


TOC of the extracted CD

Track | Start | Length | Start sector | End sector
––––––––––––––––––––––––––––-
1 | 0:00.00 | 4:10.13 | 0 | 18762
2 | 4:10.13 | 3:48.00 | 18763 | 35862
3 | 7:58.13 | 6:37.66 | 35863 | 65703
4 | 14:36.04 | 5:47.31 | 65704 | 91759
5 | 20:23.35 | 3:58.60 | 91760 | 109669
6 | 24:22.20 | 6:12.42 | 109670 | 137611
7 | 30:34.62 | 2:50.03 | 137612 | 150364
8 | 33:24.65 | 9:33.10 | 150365 | 193349
9 | 42:58.00 | 3:35.15 | 193350 | 209489
10 | 46:33.15 | 4:50.34 | 209490 | 231273
11 | 51:23.49 | 4:44.61 | 231274 | 252634


Range status and errors

Selected range

Filename F:\Ripped general\[9737] Glazunov - Complete Symphonies and Concertos - Serebier\cd7\Glazunov - Complete Symphonies and Concertos - Serebier (CD 7).wav

Peak level 99.8 %
Extraction speed 7.3 X
Range quality 99.9 %
Copy CRC 8A04CB57
Copy OK

No errors occurred


AccurateRip summary

Track 1 not present in database
Track 2 not present in database
Track 3 not present in database
Track 4 not present in database
Track 5 not present in database
Track 6 not present in database
Track 7 not present in database
Track 8 not present in database
Track 9 not present in database
Track 10 not present in database
Track 11 not present in database

None of the tracks are present in the AccurateRip database

End of status report

Exact Audio Copy V1.0 beta 3 from 29. August 2011

EAC extraction logfile from 13. July 2012, 17:43

José Serebrier / Glazunov - Complete Symphonies and Concertos - Serebier (CD 8)

Used drive : HL-DT-STDVDRAM GSA-H10A Adapter: 0 ID: 0

Read mode : Secure
Utilize accurate stream : Yes
Defeat audio cache : Yes
Make use of C2 pointers : No

Read offset correction : 667
Overread into Lead-In and Lead-Out : No
Fill up missing offset samples with silence : Yes
Delete leading and trailing silent blocks : No
Null samples used in CRC calculations : Yes
Used interface : Native Win32 interface for Win NT & 2000

Used output format : User Defined Encoder
Selected bitrate : 1024 kBit/s
Quality : High
Add ID3 tag : No
Command line compressor : C:\Program Files\Exact Audio Copy\Flac\flac.exe
Additional command line options : -8 -V -T "TITLE=%title%" -T "ARTIST=%artist%" -T "ALBUMARTIST=%albumartist%" -T "ALBUM=%albumtitle%" -T "DATE=%year%" -T "TRACKNUMBER=%tracknr%" -T "TRACKTOTAL=%numtracks%" -T "GENRE=%genre%" -T "COMMENT=%comment%" -T "PERFORMER=%albuminterpret%" -T "COMPOSER=%composer%" %source% -o %dest%


TOC of the extracted CD

Track | Start | Length | Start sector | End sector
––––––––––––––––––––––––––––-
1 | 0:00.00 | 12:01.63 | 0 | 54137
2 | 12:01.63 | 1:32.36 | 54138 | 61073
3 | 13:34.24 | 1:25.09 | 61074 | 67457
4 | 14:59.33 | 1:22.72 | 67458 | 73679
5 | 16:22.30 | 1:03.73 | 73680 | 78477
6 | 17:26.28 | 2:55.16 | 78478 | 91618
7 | 20:21.44 | 0:46.32 | 91619 | 95100
8 | 21:08.01 | 2:20.01 | 95101 | 105601
9 | 23:28.02 | 1:32.12 | 105602 | 112513
10 | 25:00.14 | 1:41.13 | 112514 | 120101
11 | 26:41.27 | 3:38.53 | 120102 | 136504
12 | 30:20.05 | 3:17.66 | 136505 | 151345
13 | 33:37.71 | 5:33.14 | 151346 | 176334
14 | 39:11.10 | 2:10.06 | 176335 | 186090
15 | 41:21.16 | 7:07.67 | 186091 | 218182
16 | 48:29.08 | 5:06.15 | 218183 | 241147
17 | 53:35.23 | 4:10.36 | 241148 | 259933


Range status and errors

Selected range

Filename F:\Ripped general\[9737] Glazunov - Complete Symphonies and Concertos - Serebier\cd8\Glazunov - Complete Symphonies and Concertos - Serebier (CD 8).wav

Peak level 98.8 %
Extraction speed 6.1 X
Range quality 99.9 %
Test CRC 34147315
Copy CRC 34147315
Copy OK

No errors occurred


AccurateRip summary

Track 1 not present in database
Track 2 not present in database
Track 3 not present in database
Track 4 not present in database
Track 5 not present in database
Track 6 not present in database
Track 7 not present in database
Track 8 not present in database
Track 9 not present in database
Track 10 not present in database
Track 11 not present in database
Track 12 not present in database
Track 13 not present in database
Track 14 not present in database
Track 15 not present in database
Track 16 not present in database
Track 17 not present in database

None of the tracks are present in the AccurateRip database

End of status report


Thanks to the original releaser

Download:

Filepost

CD 1 | CD 2 | CD 3 | CD 4 | CD 5 | CD 6 | CD 7 | CD 8
Scans

Uploaded

CD 1 | CD 2 | CD 3 | CD 4 | CD 5 | CD 6 | CD 7 | CD 8
Scans