Subcategories

Glazunov - The Complete Solo Piano Music 4 (Coombs) [repost]

Posted By: tapaz9
Glazunov - The Complete Solo Piano Music 4 (Coombs) [repost]

Glazunov - The Complete Solo Piano Music 4 (Coombs) [repost]
Classical | EAC: FLAC+Cue+Log | 1 Cd, Covers + Booklet | 281 Mb
Label: Hyperion - Date: 1996

This recording is the fourth and final disc in Stephen Coombs's edition of all Glazunov's music for solo piano. The main work featured is the Sonata No 2: it is formidably challenging. The first movement is passionate, with lush harmonies and polyphonic interest. The Scherzo second movement is the most technically demanding and has been described by Leslie Howard as 'a treacherous study in double notes in no way relieved by the faster toccata of the trio section'. Also included are many of the smaller-scale works, notable among which is the Triumphal March on the occasion of the World's Columbian Exposition in Chicago, Op 40. This piece, lasting some ten minutes, brings the listener something of a surprise when, two minutes from the end, a large chorus (here, the Holst Singers—and also the two 'Executive Producers' from Hyperion!) joins the solo piano for a quick romp (in Russian) in praise of Columbus …

Tracks:

01. Prelude and two mazurkas Op.25 I Prelude [0:03:52.01]
02. Prelude and two mazurkas Op.25 II Mazurka I [0:05:53.58]
03. Prelude and two mazurkas Op.25 III Mazurka II [0:05:07.40]
04. Barcarolle sur les touches noires [0:03:12.40]
05. Two Impromptus Op.54 - Impromptu I [0:01:53.59]
06. Two Impromptus Op.54 - Impromptu II [0:03:31.50]
07. Idylle Op.103 [0:06:03.40]
08. Triumphal March Op.40 [0:09:49.45]
09. Song of the Volga boatmen Op.97 [0:02:23.10]
10. In modo religioso Op.38 [0:02:55.33]
11. Pas de caractère Op.68 [0:02:22.29]
12. Piano Sonata No.2 in E minor Op.75 I Moderato [0:08:05.30]
13. Piano Sonata No.2 in E minor Op.75 II Scherzo [0:06:13.00]
14. Piano Sonata No.2 in E minor Op.75 III Finale [0:08:44.32]


Exact Audio Copy V1.0 beta 3 from 29. August 2011

EAC extraction logfile from 31. October 2012, 0:49

Glazunov / The Complete Solo Piano Music 4 (Coombs)

Used drive : TSSTcorpCDDVDW SH-S223C Adapter: 2 ID: 1

Read mode : Secure
Utilize accurate stream : Yes
Defeat audio cache : Yes
Make use of C2 pointers : No

Read offset correction : 697
Overread into Lead-In and Lead-Out : No
Fill up missing offset samples with silence : Yes
Delete leading and trailing silent blocks : No
Null samples used in CRC calculations : Yes
Used interface : Native Win32 interface for Win NT & 2000

Used output format : User Defined Encoder
Selected bitrate : 896 kBit/s
Quality : High
Add ID3 tag : No
Command line compressor : C:\Program Files (x86)\Exact Audio Copy\FLAC\FLAC.EXE
Additional command line options : -V -0 -T "COMMENT=Ripped by Tapaz9" -T "artist=%artist%" -T "title=%title%" -T "album=%albumtitle%" -T "date=%year%" -T "tracknumber=%tracknr%" -T "genre=%genre%" %source%


TOC of the extracted CD

Track | Start | Length | Start sector | End sector
––––––––––––––––––––––––––––-
1 | 0:00.00 | 3:52.01 | 0 | 17400
2 | 3:52.01 | 5:53.58 | 17401 | 43933
3 | 9:45.59 | 5:07.40 | 43934 | 66998
4 | 14:53.24 | 3:12.40 | 66999 | 81438
5 | 18:05.64 | 1:53.59 | 81439 | 89972
6 | 19:59.48 | 3:31.50 | 89973 | 105847
7 | 23:31.23 | 6:03.40 | 105848 | 133112
8 | 29:34.63 | 9:49.45 | 133113 | 177332
9 | 39:24.33 | 2:23.10 | 177333 | 188067
10 | 41:47.43 | 2:55.33 | 188068 | 201225
11 | 44:43.01 | 2:22.29 | 201226 | 211904
12 | 47:05.30 | 8:05.30 | 211905 | 248309
13 | 55:10.60 | 6:13.00 | 248310 | 276284
14 | 61:23.60 | 8:44.32 | 276285 | 315616


Range status and errors

Selected range

Filename F:\Musique\Glazunov\Glazunov_PianoMusicVol4\Glazunov - The Complete Solo Piano Music 4 (Coombs).wav

Peak level 91.7 %
Extraction speed 13.8 X
Range quality 100.0 %
Copy CRC CB7B4D28
Copy OK

No errors occurred

End of status report

==== Log checksum 4DC36F7C3EFC0A9434C94E43F7D84612C0D34D6107BD217D140A77564487CB9C ====

Check out my other classical music posts at My Avax blog

No Mirrors and Torrent-uploads please