Subcategories

Glen Gray & The Casa Loma Orchestra - Swinging Sounds Of The Great Bands (1999)

Posted By: popsakov
Glen Gray & The Casa Loma Orchestra - Swinging Sounds Of The Great Bands (1999)

Glen Gray & The Casa Loma Orchestra - Swinging Sounds Of The Great Bands (1999)
EAC Rip | FLAC (Img) + Cue + Log ~ 435 Mb | MP3 CBR320 ~ 172 Mb
Scans Included (JPG, 300 dpi) | RAR 5% Recovery
Jazz, Swing, Big Band | EMI-Capitol Music #72435-21349-2-2 / Eric Records #11506-2

The Casa Loma Orchestra was a popular American dance band active from 1927 to 1963. From 1929 until the rapid multiplication in the number of swing bands from 1935 on, the Casa Loma Orchestra was one of the top North American dance bands. With the decline of the big band business following the end of World War II, it disbanded in 1947. However, from 1957 to 1963, it re-emerged as a recording session band in Hollywood, made up of top-flight studio musicians under the direction of its most notable leader of the past, Glen Gray. The reconstituted band made a limited number appearances live and on television and recorded fifteen LP albums for Capitol Records before Gray died in 1963.
~ Wiki

***************

Glen Gray & The Casa Loma Orchestra - Swinging Sounds Of The Great Bands (1999)

Glen Gray & The Casa Loma Orchestra - Swinging Sounds Of The Great Bands (1999)

Track List:

01. Bugle Call Rag [2:55]
02. Leap Frog [2:41]
03. Take The 'A' Train [3:01]
04. Intermission Riff [3:30]
05. Night Train [3:16]
06. South Rampart Street Parade [3:30]
07. Ciribiribin [2:32]
08. New No Name Jive [2:31]
09. Back Bay Shuffle [3:21]
10. Tippin' In [3:24]
11. Opus No. 1 [3:00]
12. Moten Swing [3:16]
13. Cherokee [3:22]
14. Jumpin' At The Woodside [2:50]
15. Study In Brown [3:00]
16. In The Mood [3:34]
17. 720 In The Books [2:58]
18. Woodchopper's Ball [3:21]
19. Flying Home [2:56]
20. The Elk's Parade [2:58]

Exact Audio Copy V0.99 prebeta 5 from 4. May 2009

Отчёт EAC об извлечении, выполненном 16. ноября 2009, 14:23

Glen Gray & The Casa Loma Orchestra / Swinging Sounds Of The Great Bands

Дисковод: PLEXTOR DVDR PX-716A Adapter: 1 ID: 0

Режим чтения : Достоверность
Использование точного потока : Да
Отключение кэша аудио : Да
Использование указателей C2 : Нет

Коррекция смещения при чтении : 30
Способность читать области Lead-in и Lead-out : Да
Заполнение пропущенных сэмплов тишиной : Да
Удаление блоков с тишиной в начале и конце : Нет
При вычислениях CRC использовались нулевые сэмплы : Да
Интерфейс : Встроенный Win32-интерфейс для Win NT/2000

Выходной формат : Monkey's Audio (без потерь)
Выбранный битрейт : Normal Lossless Compression
Качество : Высокий
Добавление ID3-тэга : Нет
Утилита сжатия : C:\Program Files\Exact Audio Copy\MAC.exe


TOC извлечённого CD

Трек | Старт | Длительность | Начальный сектор | Конечный сектор
––––––––––––––––––––––––––––––––––-
1 | 0:00.00 | 2:54.69 | 0 | 13118
2 | 2:54.69 | 2:41.29 | 13119 | 25222
3 | 5:36.23 | 3:00.50 | 25223 | 38772
4 | 8:36.73 | 3:30.18 | 38773 | 54540
5 | 12:07.16 | 3:15.60 | 54541 | 69225
6 | 15:23.01 | 3:29.69 | 69226 | 84969
7 | 18:52.70 | 2:32.26 | 84970 | 96395
8 | 21:25.21 | 2:30.64 | 96396 | 107709
9 | 23:56.10 | 3:20.54 | 107710 | 122763
10 | 27:16.64 | 3:24.24 | 122764 | 138087
11 | 30:41.13 | 3:00.11 | 138088 | 151598
12 | 33:41.24 | 3:16.08 | 151599 | 166306
13 | 36:57.32 | 3:22.06 | 166307 | 181462
14 | 40:19.38 | 2:50.06 | 181463 | 194218
15 | 43:09.44 | 2:59.53 | 194219 | 207696
16 | 46:09.22 | 3:33.66 | 207697 | 223737
17 | 49:43.13 | 2:58.03 | 223738 | 237090
18 | 52:41.16 | 3:20.50 | 237091 | 252140
19 | 56:01.66 | 2:55.50 | 252141 | 265315
20 | 58:57.41 | 2:58.05 | 265316 | 278670


Характеристики диапазона извлечения и сообщения об ошибках

Выбранный диапазон

Имя файла D:\Glen Gray & The Casa Loma Orchestra - Swinging Sounds Of The Great Bands\Glen Gray & The Casa Loma Orchestra - Swinging Sounds Of The Great Bands.wav

Пиковый уровень 100.0 %
Качество диапазона 100.0 %
CRC теста 42AEF50F
CRC копии 42AEF50F
Копирование… OK

Ошибок не произошло


AccurateRip: сводка

Трек 1 точное извлечение (доверие 2) [BF331F70]
Трек 2 точное извлечение (доверие 2) [CB22431D]
Трек 3 точное извлечение (доверие 2) [B8DADE8D]
Трек 4 точное извлечение (доверие 2) [9C8B1FD8]
Трек 5 точное извлечение (доверие 2) [DD0F8C9F]
Трек 6 точное извлечение (доверие 2) [CF0B63B5]
Трек 7 точное извлечение (доверие 2) [8B1FEAB7]
Трек 8 точное извлечение (доверие 2) [904E41EE]
Трек 9 точное извлечение (доверие 2) [E9BC61FF]
Трек 10 точное извлечение (доверие 2) [8DF46CFB]
Трек 11 точное извлечение (доверие 2) [B049A1C4]
Трек 12 точное извлечение (доверие 2) [21716CF2]
Трек 13 точное извлечение (доверие 2) [32E628B8]
Трек 14 точное извлечение (доверие 2) [E016D39E]
Трек 15 точное извлечение (доверие 2) [E266F0EF]
Трек 16 точное извлечение (доверие 2) [5B0CC819]
Трек 17 точное извлечение (доверие 2) [0521FEBF]
Трек 18 точное извлечение (доверие 2) [1388CCA7]
Трек 19 точное извлечение (доверие 2) [6013FB49]
Трек 20 точное извлечение (доверие 2) [3B432133]

Все треки извлечены точно

Конец отчёта

foobar2000 1.3.16 / Dynamic Range Meter 1.1.1
log date: 2017-11-08 19:15:44

––––––––––––––––––––––––––––––––––––––––
Analyzed: Glen Gray & The Casa Loma Orchestra / Swinging Sounds Of The Great Bands
––––––––––––––––––––––––––––––––––––––––

DR Peak RMS Duration Track
––––––––––––––––––––––––––––––––––––––––
DR11 0.00 dB -14.27 dB 2:55 01-Bugle Call Rag
DR11 0.00 dB -13.72 dB 2:41 02-Leap Frog
DR13 0.00 dB -16.04 dB 3:01 03-Take The 'A' Train
DR11 0.00 dB -14.17 dB 3:30 04-Intermission Riff
DR12 0.00 dB -14.53 dB 3:16 05-Night Train
DR11 0.00 dB -12.54 dB 3:30 06-South Rampart Street Parade
DR12 0.00 dB -14.49 dB 2:32 07-Ciribiribin
DR11 0.00 dB -13.96 dB 2:31 08-New No Name Jive
DR13 0.00 dB -15.68 dB 3:21 09-Back Bay Shuffle
DR11 0.00 dB -13.33 dB 3:24 10-Tippin' In
DR12 0.00 dB -14.54 dB 3:00 11-Opus No. 1
DR13 0.00 dB -14.89 dB 3:16 12-Moten Swing
DR11 -0.18 dB -14.00 dB 3:22 13-Cherokee
DR12 0.00 dB -15.76 dB 2:50 14-Jumpin' At The Woodside
DR11 0.00 dB -13.47 dB 3:00 15-Study In Brown
DR13 0.00 dB -16.18 dB 3:34 16-In The Mood
DR11 0.00 dB -13.82 dB 2:58 17-720 In The Books
DR13 0.00 dB -16.04 dB 3:21 18-Woodchopper's Ball
DR12 0.00 dB -15.34 dB 2:56 19-Flying Home
DR13 0.00 dB -17.28 dB 2:58 20-The Elk's Parade
––––––––––––––––––––––––––––––––––––––––

Number of tracks: 20
Official DR value: DR12

Samplerate: 44100 Hz
Channels: 2
Bits per sample: 16
Bitrate: 884 kbps
Codec: FLAC
================================================================================

[CUETools log; Date: 08.11.2017 19:14:49; Version: 2.1.5]
[CTDB TOCID: eezxnZXbvFhZtJ5i5xjIfs7.QF0-] found.
Track | CTDB Status
1 | (5/5) Accurately ripped
2 | (5/5) Accurately ripped
3 | (5/5) Accurately ripped
4 | (5/5) Accurately ripped
5 | (5/5) Accurately ripped
6 | (5/5) Accurately ripped
7 | (5/5) Accurately ripped
8 | (5/5) Accurately ripped
9 | (5/5) Accurately ripped
10 | (5/5) Accurately ripped
11 | (5/5) Accurately ripped
12 | (5/5) Accurately ripped
13 | (5/5) Accurately ripped
14 | (5/5) Accurately ripped
15 | (5/5) Accurately ripped
16 | (5/5) Accurately ripped
17 | (5/5) Accurately ripped
18 | (5/5) Accurately ripped
19 | (5/5) Accurately ripped
20 | (4/5) Accurately ripped
[AccurateRip ID: 002c637c-028d288d-240e8314] found.
Track [ CRC | V2 ] Status
01 [bf331f70|b314301e] (5+3/8) Accurately ripped
02 [cb22431d|994cfe87] (5+3/8) Accurately ripped
03 [b8dade8d|f926e43d] (5+3/8) Accurately ripped
04 [9c8b1fd8|cdd5c462] (5+3/8) Accurately ripped
05 [dd0f8c9f|54ca342a] (5+3/8) Accurately ripped
06 [cf0b63b5|98c01415] (5+3/8) Accurately ripped
07 [8b1feab7|891a7fa3] (5+3/8) Accurately ripped
08 [904e41ee|4afffba8] (5+3/8) Accurately ripped
09 [e9bc61ff|12a561bb] (5+3/8) Accurately ripped
10 [8df46cfb|0b827dc1] (5+3/8) Accurately ripped
11 [b049a1c4|510b5578] (5+3/8) Accurately ripped
12 [21716cf2|f64e767c] (5+3/8) Accurately ripped
13 [32e628b8|00a2adea] (5+3/8) Accurately ripped
14 [e016d39e|f54d398a] (5+3/8) Accurately ripped
15 [e266f0ef|ed895c24] (5+3/8) Accurately ripped
16 [5b0cc819|7492ba4c] (5+3/8) Accurately ripped
17 [0521febf|18d219a5] (5+3/8) Accurately ripped
18 [1388cca7|7b23cf63] (5+3/8) Accurately ripped
19 [6013fb49|fd4e3518] (5+3/8) Accurately ripped
20 [3b432133|dc2cde8d] (5+3/8) Accurately ripped

Track Peak [ CRC32 ] [W/O NULL] [ LOG ]
– 100,0 [42AEF50F] [B5E76141] CRC32
01 100,0 [64E35620] [ED616210]
02 100,0 [7AC1C767] [C51DF82E]
03 100,0 [7874F1AE] [33D1EB6D]
04 100,0 [E71F1245] [66B5F2B8]
05 100,0 [844CF592] [1CDCE9F9]
06 100,0 [FB3A5B62] [43FF9CC1]
07 100,0 [9C62A2F3] [F1E4FAF5]
08 100,0 [21C1A2F6] [B23B715B]
09 100,0 [B88E27D2] [BE370804]
10 100,0 [5E3B0C65] [671A510E]
11 100,0 [E2F93318] [AE1C8B88]
12 100,0 [2E28B3E7] [2E1C50CB]
13 98,0 [C0F3E4E0] [F077C47B]
14 100,0 [96B0DFBA] [DEE9C097]
15 100,0 [79C36D72] [524B52C0]
16 100,0 [38A36E00] [267B2498]
17 100,0 [E4A379C3] [A07964D0]
18 100,0 [675A4183] [BFF89407]
19 100,0 [6FF74862] [292CC548]
20 99,9 [6861209F] [54A1125F]

Glen Gray & The Casa Loma Orchestra - Swinging Sounds Of The Great Bands (1999)

All thanks go to wwphil

>>> My Blog <<<

Download from icerbox.com: