Subcategories

Glenn Frey - Solo Collection (1995)

Posted By: popsakov
Glenn Frey - Solo Collection (1995)

Glenn Frey - Solo Collection (1995)
EAC Rip | FLAC (Img) + Cue + Log ~ 515 Mb | MP3 CBR320 ~ 175 Mb
Scans (PNG, 400 dpi) ~ 121 Mb | RAR 5% Recovery
Pop Rock, Soft Rock | MCA Records #MCAD-11227

Glenn Lewis Frey was an American singer, songwriter, record producer, actor and painter, best known as a founding member of the rock band Eagles. During the 1970s, Frey played guitar with the band, as well as piano and keyboards. Alongside Don Henley, Frey was one of the primary singers of the Eagles; he sang lead vocals on songs such as "Take It Easy", "Peaceful Easy Feeling", "Tequila Sunrise", "Already Gone", "Lyin' Eyes", "New Kid in Town" and "Heartache Tonight".

After the breakup of the Eagles in 1980, Frey embarked on a successful solo career. He released his debut album, No Fun Aloud, in 1982 and went on to record Top 40 hits "The One You Love", "Smuggler's Blues", "Sexy Girl", "The Heat Is On", "You Belong to the City", "True Love", "Soul Searchin'" and "Livin' Right".

As a member of the Eagles, Frey won six Grammy Awards, and five American Music Awards. The Eagles were inducted into the Rock and Roll Hall of Fame in 1998, the first year they were nominated. Consolidating his solo recordings and those with the Eagles, Frey released 24 Top 40 singles on the Billboard Hot 100.
~ Wiki


Glenn Frey has had a mixed solo career, alternating between Top Ten hits and outright commercial disasters. Solo Collection performs a welcome service by collecting the highlights from his decidedly uneven solo albums, including all of his biggest hits. Not only is it a perfect introduction, it's arguably the most consistent solo record Frey ever released.
~ Stephen Thomas Erlewine, All Music

Glenn Frey - Solo Collection (1995)


***************

Glenn Frey - Solo Collection (1995)

Track List:

01. This Way To Happiness [03:27]
02. Who's Been Sleeping In My Bed? [04:06]
03. Common Ground [04:44]
04. Call On Me [04:11]
05. The One You Love [04:34]
06. Sexy Girl [03:31]
07. Smuggler's Blues [03:51]
08. The Heat Is On [03:47]
09. You Belong To The City [05:53]
10. True Love [04:41]
11. Soul Searchin' [05:36]
12. Part Of Me, Part Of You [05:58]
13. I've Got Mine [05:36]
14. River Of Dreams [06:09]
15. Rising Sun [00:39]
16. Brave New World [06:23]

Exact Audio Copy V1.0 beta 3 from 29. August 2011

EAC extraction logfile from 14. May 2016, 19:59

Glenn Frey / Solo Collection

Used drive : PIONEER BD-RW BDR-TD03 Adapter: 0 ID: 1

Read mode : Secure
Utilize accurate stream : Yes
Defeat audio cache : Yes
Make use of C2 pointers : No

Read offset correction : 667
Overread into Lead-In and Lead-Out : No
Fill up missing offset samples with silence : Yes
Delete leading and trailing silent blocks : No
Null samples used in CRC calculations : Yes
Used interface : Native Win32 interface for Win NT & 2000

Used output format : User Defined Encoder
Selected bitrate : 768 kBit/s
Quality : High
Add ID3 tag : No
Command line compressor : C:\Program Files (x86)\Exact Audio Copy\FLAC\FLAC.EXE
Additional command line options : -6 -V -T "ARTIST=%artist%" -T "TITLE=%title%" -T "ALBUM=%albumtitle%" -T "DATE=%year%" -T "TRACKNUMBER=%tracknr%" -T "GENRE=%genre%" -T "COMMENT=%comment%" -T "BAND=%albuminterpret%" -T "ALBUMARTIST=%albuminterpret%" -T "COMPOSER=%composer%" %haslyrics%–tag-from-file=LYRICS="%lyricsfile%"%haslyrics% -T "DISCNUMBER=%cdnumber%" -T "TOTALDISCS=%totalcds%" -T "TOTALTRACKS=%numtracks%" %hascover%–picture="%coverfile%"%hascover% %source% -o %dest%


TOC of the extracted CD

Track | Start | Length | Start sector | End sector
––––––––––––––––––––––––––––-
1 | 0:00.00 | 3:26.22 | 0 | 15471
2 | 3:26.22 | 4:05.10 | 15472 | 33856
3 | 7:31.32 | 4:43.18 | 33857 | 55099
4 | 12:14.50 | 4:10.25 | 55100 | 73874
5 | 16:25.00 | 4:33.50 | 73875 | 94399
6 | 20:58.50 | 3:30.45 | 94400 | 110194
7 | 24:29.20 | 3:50.15 | 110195 | 127459
8 | 28:19.35 | 3:46.35 | 127460 | 144444
9 | 32:05.70 | 5:52.05 | 144445 | 170849
10 | 37:58.00 | 4:40.25 | 170850 | 191874
11 | 42:38.25 | 5:35.09 | 191875 | 217008
12 | 48:13.34 | 5:57.06 | 217009 | 243789
13 | 54:10.40 | 5:35.35 | 243790 | 268949
14 | 59:46.00 | 6:08.02 | 268950 | 296551
15 | 65:54.02 | 0:38.08 | 296552 | 299409
16 | 66:32.10 | 6:22.59 | 299410 | 328118


Range status and errors

Selected range

Filename C:\Users\Deris\Desktop\…\Freysol\Glenn Frey - Solo Collection.wav

Peak level 100.0 %
Extraction speed 5.1 X
Range quality 100.0 %
Test CRC C0CF3A78
Copy CRC C0CF3A78
Copy OK

No errors occurred


AccurateRip summary

Track 1 accurately ripped (confidence 24) [19B5BF2E] (AR v2)
Track 2 accurately ripped (confidence 23) [51248D21] (AR v2)
Track 3 accurately ripped (confidence 24) [27F1C8B3] (AR v2)
Track 4 accurately ripped (confidence 24) [56C069C8] (AR v2)
Track 5 accurately ripped (confidence 26) [51557447] (AR v2)
Track 6 accurately ripped (confidence 24) [D6BC5503] (AR v2)
Track 7 accurately ripped (confidence 24) [2C5974BC] (AR v2)
Track 8 accurately ripped (confidence 26) [75FD490F] (AR v2)
Track 9 accurately ripped (confidence 25) [EFD4BEC3] (AR v2)
Track 10 accurately ripped (confidence 24) [413108DC] (AR v2)
Track 11 accurately ripped (confidence 24) [3FA3DCDE] (AR v2)
Track 12 accurately ripped (confidence 24) [100A6DA1] (AR v2)
Track 13 accurately ripped (confidence 23) [CDEB41EB] (AR v2)
Track 14 accurately ripped (confidence 23) [C0A5E88E] (AR v2)
Track 15 accurately ripped (confidence 22) [AFB829DC] (AR v2)
Track 16 accurately ripped (confidence 22) [6894E8AB] (AR v2)

All tracks accurately ripped

End of status report

–– CUETools DB Plugin V2.1.3

[CTDB TOCID: 2zAGZ3qa8qC7i0O3FP2bgf4ME28-] found, Submit result: 2zAGZ3qa8qC7i0O3FP2bgf4ME28- has been confirmed
[8db39db1] (25/28) Accurately ripped
[989a9a83] (01/28) No match
[e9fd7db5] (01/28) No match
[6b77425c] (01/28) No match


==== Log checksum 42333DB1B9015BD170F44B261FD1B203A9CCE72A4AD4466F52325C1F23685BE5 ====

foobar2000 1.2.6 / Dynamic Range Meter 1.1.1
log date: 2016-05-19 00:00:45

––––––––––––––––––––––––––––––––––––––––
Analyzed: Glenn Frey / Solo Collection
––––––––––––––––––––––––––––––––––––––––

DR Peak RMS Duration Track
––––––––––––––––––––––––––––––––––––––––
DR9 0.00 dB -10.31 dB 3:26 01-This Way To Happiness
DR9 0.00 dB -10.27 dB 4:05 02-Who's Been Sleeping In My Bed?
DR8 0.00 dB -9.80 dB 4:43 03-Common Ground
DR10 0.00 dB -11.27 dB 4:10 04-Call On Me
DR10 0.00 dB -12.11 dB 4:34 05-The One You Love
DR9 0.00 dB -11.13 dB 3:31 06-Sexy Girl
DR8 0.00 dB -9.06 dB 3:50 07-Smuggler's Blues
DR9 0.00 dB -10.61 dB 3:46 08-The Heat Is On
DR10 0.00 dB -11.60 dB 5:52 09-You Belong To The City
DR10 0.00 dB -11.73 dB 4:40 10-True Love
DR10 0.00 dB -12.03 dB 5:35 11-Soul Searchin'
DR10 0.00 dB -11.88 dB 5:57 12-Part Of Me, Part Of You
DR11 0.00 dB -12.67 dB 5:35 13-I've Got Mine
DR10 0.00 dB -12.68 dB 6:08 14-River Of Dreams
DR10 -3.69 dB -19.19 dB 0:38 15-Rising Sun
DR9 0.00 dB -11.22 dB 6:23 16-Brave New World
––––––––––––––––––––––––––––––––––––––––

Number of tracks: 16
Official DR value: DR9

Samplerate: 44100 Hz
Channels: 2
Bits per sample: 16
Bitrate: 941 kbps
Codec: FLAC
================================================================================

[CUETools log; Date: 19.05.2016 0:00:46; Version: 2.1.5]
[CTDB TOCID: 2zAGZ3qa8qC7i0O3FP2bgf4ME28-] found.
Track | CTDB Status
1 | (28/29) Accurately ripped
2 | (28/29) Accurately ripped
3 | (28/29) Accurately ripped
4 | (29/29) Accurately ripped
5 | (29/29) Accurately ripped
6 | (29/29) Accurately ripped
7 | (28/29) Accurately ripped
8 | (28/29) Accurately ripped
9 | (28/29) Accurately ripped
10 | (28/29) Accurately ripped
11 | (29/29) Accurately ripped
12 | (28/29) Accurately ripped
13 | (27/29) Accurately ripped
14 | (26/29) Accurately ripped
15 | (29/29) Accurately ripped
16 | (26/29) Accurately ripped
[AccurateRip ID: 0028c2ff-01f0bda7-f7111610] found.
Track [ CRC | V2 ] Status
01 [5207d71e|19b5bf2e] (18+24/48) Accurately ripped
02 [18845d41|51248d21] (18+23/47) Accurately ripped
03 [f0f41e4c|27f1c8b3] (18+24/48) Accurately ripped
04 [a2723deb|56c069c8] (19+24/49) Accurately ripped
05 [3845f926|51557447] (20+26/52) Accurately ripped
06 [75fdaf58|d6bc5503] (19+24/49) Accurately ripped
07 [197cfadc|2c5974bc] (20+24/50) Accurately ripped
08 [583d774d|75fd490f] (21+26/53) Accurately ripped
09 [2abdfcaf|efd4bec3] (20+25/51) Accurately ripped
10 [9e523b57|413108dc] (19+24/49) Accurately ripped
11 [b558dbc6|3fa3dcde] (18+24/48) Accurately ripped
12 [0dc4340e|100a6da1] (19+24/49) Accurately ripped
13 [a73ed940|cdeb41eb] (18+23/47) Accurately ripped
14 [78c25476|c0a5e88e] (16+23/45) Accurately ripped
15 [0c524442|afb829dc] (17+22/45) Accurately ripped
16 [711186dc|6894e8ab] (16+22/44) Accurately ripped
Offsetted by -183:
01 [bcb6c8e1] (02/48) Accurately ripped
02 [d17197ba] (02/47) Accurately ripped
03 [d41b3455] (02/48) Accurately ripped
04 [8d1b2991] (02/49) Accurately ripped
05 [cdac4b9a] (02/52) Accurately ripped
06 [0d676bd5] (02/49) Accurately ripped
07 [a4498b9c] (02/50) Accurately ripped
08 [3ea6f280] (02/53) Accurately ripped
09 [47cbcce0] (02/51) Accurately ripped
10 [c76d9bb7] (02/49) Accurately ripped
11 [23c26c72] (02/48) Accurately ripped
12 [dacb97fc] (02/49) Accurately ripped
13 [01e4b0af] (02/47) Accurately ripped
14 [6e2560d9] (02/45) Accurately ripped
15 [48827a88] (02/45) Accurately ripped
16 [dd2194c8] (02/44) Accurately ripped
Offsetted by -29:
01 [95a1cc09] (02/48) Accurately ripped
02 [a2883d34] (02/47) Accurately ripped
03 [bde1bc63] (02/48) Accurately ripped
04 [d1fa27cc] (02/49) Accurately ripped
05 [b94fb549] (02/52) Accurately ripped
06 [72640656] (02/49) Accurately ripped
07 [7df34662] (02/50) Accurately ripped
08 [800b8332] (02/53) Accurately ripped
09 [4fcebb90] (02/51) Accurately ripped
10 [c9cf3ecb] (02/49) Accurately ripped
11 [6f1c8602] (02/48) Accurately ripped
12 [fe74854e] (02/49) Accurately ripped
13 [06fbaadf] (02/47) Accurately ripped
14 [4db27b86] (02/45) Accurately ripped
15 [b8bf87ba] (02/45) Accurately ripped
16 [5cb5da38] (02/44) Accurately ripped

Track Peak [ CRC32 ] [W/O NULL] [ LOG ]
– 99,9 [C0CF3A78] [BB417E9E] CRC32
01 99,9 [190E885A] [F8F64529]
02 99,9 [DF595B90] [5BF50EA9]
03 99,9 [77D1DC98] [3A7D915E]
04 99,9 [8359F65C] [53AA7D82]
05 99,9 [61154C61] [E8C1C697]
06 99,9 [81D9B8C5] [1B7FA78E]
07 99,9 [B85A7946] [3B0DE83D]
08 99,9 [CB1A74D2] [0CC65B0F]
09 99,9 [EB6224D6] [9D76C401]
10 99,9 [07898053] [440C854B]
11 99,9 [E726B0F1] [B2F9FF7E]
12 99,9 [D1F40B18] [DA18344C]
13 99,9 [26013C3B] [04E06587]
14 99,9 [FEA98427] [FC52B4B5]
15 65,4 [1204137D] [F936E098]
16 99,9 [8F48DE51] [7147678B]

Glenn Frey - Solo Collection (1995)

Glenn Frey - Solo Collection (1995)

See also:
Glenn Frey - Strange Weather (1992)
Glenn Frey - Live (1993)

All thanks go to Boris1

Visit my blog!

Download:
Nitroflare: FLAC-part 1 | FLAC-part 2 | Scans | mp3
Salefiles: FLAC-part 1 | FLAC-part 2 | Scans | mp3