Subcategories

Glenn Gould, Herbert von Karajan - Beethoven: Concerto for Piano and Orchestra No. 3, Sibelius: Simphony No. 5 (2008)

Posted By: tirexiss
Glenn Gould, Herbert von Karajan - Beethoven: Concerto for Piano and Orchestra No. 3, Sibelius: Simphony No. 5 (2008)

Glenn Gould, Herbert von Karajan - Beethoven: Concerto for Piano and Orchestra No. 3, Sibelius: Simphony No. 5 (2008)
EAC | APE (image+.cue, log) | Covers Included | 66:26 | 320 MB
Genre: Classical | Label: Sony Classical | Catalog: 88697287822

The mutual admiration society that was Glenn Gould and Herbert von Karajan gave six concerts between May 1957 and September 1959 featuring Beethoven’s C minor Concerto (Berlin 1957) and Bach’s D minor (Berlin 1958, Lucerne 1959). Though neither of the Bach performances has appeared on disc, the Beethoven has had several CD outings. This handsomely packaged “official” transfer by Sony is the best we have had technically.

Gould had a distinctive range of personae where the Beethoven was concerned. His 1955 Canadian radio performance was described by Bryce Morrison as “coltish and spine-tingling”, the very reverse of the studiously intense, intimately scaled studio recording Gould made with Leonard Bernstein in 1959. This more conventionally paced Berlin performance is notable for the sense it brings of the work’s incipient lyric beauty. At Karajan’s more flowing tempo, Gould’s account of the Largo has an airier, more improvisatory feel.

The Sibelius comes from the same concert. This was Karajan’s first Sibelius with the BPO two years after taking over the orchestra. He was a dedicated Sibelian whose Philharmonia recordings Sibelius himself thought remarkable. The Berliners, by contrast, had played little Sibelius under Furtwängler, nor were German audiences much enamoured of the music. (Witness the oddly tepid response of the audience who clearly don’t know whether the symphony has finished or not.)

So Karajan had a struggle on his hands. Thanks to patches of fine string-playing and the sheer force of his advocacy there are moments of greatness here in what is often a strangely costive realisation. Taking the orchestra forward from this pit of incomprehension to the multi-faceted splendours of the legendary 1965 DG Berlin Fifth was some journey.

Glenn Gould, Herbert von Karajan - Beethoven: Concerto for Piano and Orchestra No. 3, Sibelius: Simphony No. 5 (2008)

Track List:

Ludwig van Beethoven (1770-1827)

Concerto for piano and orchestra No. 3 c-moll Op. 37
01. I. Allegro con brio
02. II. Largo
03. III. Rondo (Allegro)

Jean Sibelius (1865-1957)

Simphony No. 5 Es-Dur Op. 82
04. I. Tempo Molto Moderato – Allegro moderato – Vivace molto – Presto – Più Presto
05. II. Andante Mosso, quasi Allegretto
06. III. Allegro Molto – Misterioso – Un Pochettino - Largamente – Un Pochettino Stretto

Performers:
Glenn Gould - piano
Berliner Philharmoniker
Herbert von Karajan

Live recording, May 26, 1957

Exact Audio Copy V0.99 prebeta 4 from 23. January 2008

Отчёт EAC об извлечении, выполненном 13. июня 2008, 7:48

Herbert Von Karajan, Glenn Gould, Berliner Philharmoniker / Beethoven, Sibelius: The legendary Berlin Concert (Karajan, Gould)

Дисковод: ASUS DRW-2014L1T Adapter: 2 ID: 0

Режим чтения : Достоверность
Использование точного потока : Да
Отключение кэша аудио : Да
Использование указателей C2 : Нет

Коррекция смещения при чтении : 6
Способность читать области Lead-in и Lead-out : Нет
Заполнение пропущенных сэмплов тишиной : Да
Удаление блоков с тишиной в начале и конце : Нет
При вычислениях CRC использовались нулевые сэмплы : Нет
Интерфейс : Установленный внешний ASPI-интерфейс

Выходной формат : Внутренние WAV-операции
Формат сэмплов : 44.100 Гц; 16 бит; стерео


TOC извлечённого CD

Трек | Старт | Длительность | Начальный сектор | Конечный сектор
––––––––––––––––––––––––––––––––––-
1 | 0:00.00 | 16:19.22 | 0 | 73446
2 | 16:19.22 | 9:30.32 | 73447 | 116228
3 | 25:49.54 | 10:13.73 | 116229 | 162276
4 | 36:03.52 | 12:25.36 | 162277 | 218187
5 | 48:29.13 | 7:45.54 | 218188 | 253116
6 | 56:14.67 | 10:14.05 | 253117 | 299171


Характеристики диапазона извлечения и сообщения об ошибках

Выбранный диапазон

Имя файла E:\Torr\Herbert Von Karajan, Glenn Gould, Berliner Philharmoniker - Beethoven, Sibelius The legendary Berlin Concert\Herbert Von Karajan, Glenn Gould, Berliner Philharmoniker - Beethoven, Sibelius The legendary Berlin Concert (Karajan, Goul

Пиковый уровень 96.1 %
Качество диапазона 100.0 %
CRC копии 38749158
Копирование… OK

Ошибок не произошло

Конец отчёта

[CUETools log; Date: 06.10.2017 17:08:02; Version: 2.1.5]
[CTDB TOCID: _JBeJmUWZLIqai5uyg.U1Hiuh6o-] found.
Track | CTDB Status
1 | (49/50) Accurately ripped
2 | (50/50) Accurately ripped
3 | (50/50) Accurately ripped
4 | (48/50) Accurately ripped
5 | (50/50) Accurately ripped
6 | (50/50) Accurately ripped
[AccurateRip ID: 0011207e-00593dd8-4e0f9406] found.
Track [ CRC | V2 ] Status
01 [8baa44f9|4baef056] (0+0/7) No match
02 [318d5882|46a5bfce] (0+0/7) No match
03 [7dabe311|27f07761] (0+0/7) No match
04 [812f1a9c|f23415e8] (0+0/5) No match
05 [4481ed90|79e89421] (0+0/5) No match
06 [3d767e29|30652257] (0+0/5) No match
Offsetted by 102:
01 [816a0a17] (0/7) No match (V2 was not tested)
02 [6019c621] (0/7) No match (V2 was not tested)
03 [9ff0dfba] (0/7) No match (V2 was not tested)
04 [bd341178] (0/5) No match (V2 was not tested)
05 [71d3bffc] (0/5) No match (V2 was not tested)
06 [d93cb7bf] (0/5) No match (V2 was not tested)
Offsetted by 114:
01 [92f0843f] (0/7) No match (V2 was not tested)
02 [51808e83] (0/7) No match (V2 was not tested)
03 [5d464e76] (0/7) No match (V2 was not tested)
04 [90809568] (0/5) No match (V2 was not tested)
05 [74587872] (0/5) No match (V2 was not tested)
06 [57d77843] (0/5) No match (V2 was not tested)

Track Peak [ CRC32 ] [W/O NULL] [ LOG ]
– 96,1 [1F2E9F9F] [38749158] W/O NULL
01 78,5 [F83AF037] [6B4F38F1]
02 65,0 [26314BDA] [0CB14DF2]
03 73,6 [B5A00F5F] [113C22C9]
04 96,1 [633B81C7] [418E8386]
05 79,1 [8FFD479F] [9BBB7011]
06 87,2 [326D6353] [47DA8E3F]

Thanks to the Original ripper (unknown)!

Download: