Subcategories

Werner Ehrhardt, L'arte del mondo, Valer Sabadus - Gluck: La clemenza di Tito [2014]

Posted By: Vilboa
Werner Ehrhardt, L'arte del mondo, Valer Sabadus - Gluck: La clemenza di Tito [2014]

Werner Ehrhardt, L'arte del mondo, Valer Sabadus - Gluck: La clemenza di Tito [2014]
Classical | Deutsche Harmonia Mundi 88843031432 | TT: 52.18+41.15+78.16+41.17 | EAC (flac, cue, log) | Covers | 1.11 Gb

The opera is starring countertenor Valer Sabadus - one of opera's most exciting newcomers - now exclusively signed to Deutsche Harmonia Mundi, a division of Sony Classical. Christoph Willibald Gluck, widely known for fundamentally reforming the 'opera seria' wrote some of the greatest and exemplary masterpieces of this great genre before he started his famous reform of the opera. This makes this work a fascinating and enlightening piece in the puzzle for the evolution of opera and the eminent character Gluck. Gluck's setting of La Clemenza was first performed in Naples in 1752, ten years before his first reform opera.
‘La Clemenza di Tito’ is an exemplary 'opera seria' and a masterpiece of this genre, based on a libretto by the famous Pietro Metastasio. Metastasio’s libretti have been set to music more than any other writer, ever! For example, the libretto of ‘La Clemenza di Tito’ has been set to music 40 times. This world premiere recording by the ensemble l’arte del mondo imposingly shows the exceptional skills of one of the most influential opera composers of all time and reveals a rather unknown side of this outstanding visionary.
The orchestra l’arte del mondo is rooted in the Early Music tradition, but also plays on modern instruments with the same passion, performing repertoire that goes up to the Romantic period. Since it was founded, the ensemble has been invited to appear at many major festivals and concert series such as the Ludwigsburg Schlossfestspiele, the Bonn Beethoven Festival, the Schwetzingen Festival and the Sanssouci Music Festival in Potsdam. l’arte del mondo has also played at such illustrious venues as Konzerthaus Berlin, the Cité de la musique in Paris, the Düsseldorf Tonhalle, the Festspielhaus Baden-Baden and Munich's Herkulessaal.

Cast:
Tito Vespasiano - Rainer Trost
Vitellia - Laura Aikin
Sesto - Raffaella Milanesi
Servilia - Arantza Ezenarro
Annio - Valer Sabadus
Publio - Flavio Ferri-Benedetti
L'arte del mondo
Conductor - Werner Ehrhardt


CD1
01. Atto I. Sinfonia: I. Allegro
02. Sinfonia: II. Largo
03. Sinfonia: III. Allegro molto
04. Scena 1. Recitativo (Vitellia, Sesto)
05. Scena 2. Recitativo (Annio, Vetellia, Sesto)
06. Aria: Deh! Se piacer mi vuoi (Vitellia)
07. Scena 3. Recitativo (Annio, Sesto)
08. Aria: Io sento che in petto (Annio)
09. Scena 4. Recitativo (Sesto)
10. Aria: Opprimete i contumaci (Sesto)
11. Scena 5. Marcia
12. Recitativo (Publio, Annio, Tito, Sesto)
13. Aria: Di quel sublime soglio (Tito)
14. Scena 6. Recitativo (Annio, Servilia)
15. Aria: Ah! Perdona al primo affetto (Annio)
CD2
01. Scena 7. Recitativo (Servilia)
02. Aria: Amo te solo (Servilia)
03. Scena 8. Recitativo (Tito, Publio)
04. Scena 9. Recitativo (Servilia, Tito)
05. Aria: Ah! Se fosse intorno al trono (Tito)
06. Scena 10. Recitativo (Vitellia, Servilia, Sesto)
07. Aria: Parto, ma tu ben mio (Sesto)
08. Scena 11. Recitativo (Vitellia, Publio)
09. Scena 12. Recitativo (Vitellia)
10. Aria: Quando sarà quel d`(Vitellia)
CD3
01. Atto II. Scena 1. Recitativo (Sesto)
02. Scena 2. Recitativo (Annio, Sesto)
03. Scena 3. Recitativo (Annio, Servilia, Publio)
04. Scena 4. Recitativo (Servilia, Publio)
05. Aria: Sia lontano ogni cimento (Publio)
06. Scena 5. Recitativo (Servilia)
07. Aria: Almen, se non poss'io (Servilia)
08. Scena 6. Recitativo (Vitellia, Sesto)
09. Aria: Come potesti, oh Dio! (Vitellia)
10. Scena 7. Recitativo (Sesto, Annio)
11. Aria: Fra stupido e pensoso (Sesto)
12. Scena 8. Recitativo (Tito, Servilia)
13. Scena 9. Recitativo (Sesto, Tito)
14. Scena 10. Recitativo (Vitellia, Sesto)
15. Scena 11. Recitativo (Annio, Tito, Servilia, Sesto, Vitellia)
16. Aria: Tu, infedel, non hai difese (Tito)
17. Scena 12. Recitativo (Annio, Servilia, Sesto, Vitellia)
18. Aria: Ch'io aprto reo, lo vedi (Tito)
19. Scena 13. Recitativo (Sesto, Vitellia)
20. Scena 14. Recitativo (Publio, Sesto, Vitellia)
21. Aria: Se mai senti spirarti sul volto (Sesto)
22. Scena 15. Recitativo (Vitellia)
23. Aria: Tremo fra' dubbi miei (Vitellia)
CD4
01. Atto III. Scena 1. Recitativo (Publio, Tito)
02. Aria: Tardi s'avvede (Publio)
03. Scena 2. Recitativo (Tito, Annio)
04. Scena 3. Recitativo (Publio, Tito, Annio)
05. Aria: Pietà, signor, per lui (Annio)
06. Scena 4. Recitativo (Tito)
07. Scena 5. Recitativo (Tito, Publio)
08. Scena 6. Recitativo (Sesto, Tito, Publio)
09. Aria: Vo disperato a morte (Sesto)
10. Scena 7. Recitativo (Tito)
11. Scena 8. Recitativo (Publio, Tito)
12. Aria: Se all'impero, amici dei (Tito)
13. Scena 9. Recitativo (Vitellia, Publio)
14. Scena 10. Recitativo (Vitellia, Servilia, Annio)
15. Aria: S'altro che lagrime (Servilia)
16. Scena 11. Recitativo (Vitellia)
17. Aria: Getta il nocchier talora (Vitellia)
18. Scena 12. Recitativo (Tito, Annio, Servilia)
19. Scena 13. Recitativo (Tutti)
20. Coro: Che del ciel, che degli dei


Exact Audio Copy V1.0 beta 3 from 29. August 2011

EAC extraction logfile from 6. March 2017, 21:38

L'Arte delMondo, Werner Ehrhardt / Gluck - La clemenza di Tito CD1

Used drive : PIONEER BD-RW BDR-207M Adapter: 0 ID: 0

Read mode : Secure
Utilize accurate stream : Yes
Defeat audio cache : Yes
Make use of C2 pointers : No

Read offset correction : 667
Overread into Lead-In and Lead-Out : No
Fill up missing offset samples with silence : Yes
Delete leading and trailing silent blocks : No
Null samples used in CRC calculations : Yes
Used interface : Native Win32 interface for Win NT & 2000

Used output format : User Defined Encoder
Selected bitrate : 128 kBit/s
Quality : High
Add ID3 tag : No
Command line compressor : C:\Program Files\Exact Audio Copy\Flac\flac.exe
Additional command line options : -V -8 -T "Date=%year%" -T "Genre=%genre%" %source%


TOC of the extracted CD

Track | Start | Length | Start sector | End sector
––––––––––––––––––––––––––––-
1 | 0:00.00 | 1:57.15 | 0 | 8789
2 | 1:57.15 | 1:32.33 | 8790 | 15722
3 | 3:29.48 | 1:06.13 | 15723 | 20685
4 | 4:35.61 | 2:56.05 | 20686 | 33890
5 | 7:31.66 | 1:11.53 | 33891 | 39268
6 | 8:43.44 | 5:59.61 | 39269 | 66254
7 | 14:43.30 | 0:53.42 | 66255 | 70271
8 | 15:36.72 | 8:35.64 | 70272 | 108960
9 | 24:12.61 | 0:58.16 | 108961 | 113326
10 | 25:11.02 | 8:15.12 | 113327 | 150463
11 | 33:26.14 | 1:38.20 | 150464 | 157833
12 | 35:04.34 | 5:22.06 | 157834 | 181989
13 | 40:26.40 | 4:50.50 | 181990 | 203789
14 | 45:17.15 | 1:31.54 | 203790 | 210668
15 | 46:48.69 | 5:27.56 | 210669 | 235249


Range status and errors

Selected range

Filename C:\Gluck - La clemenza di Tito CD1.wav

Peak level 98.8 %
Extraction speed 4.4 X
Range quality 100.0 %
Test CRC 5399F2E0
Copy CRC 5399F2E0
Copy OK

No errors occurred

End of status report

==== Log checksum 80A81E93C3307D59F218C635DE782BF1C9272CA4DF0DA2ADB64C979E6DE8B843 ====


Exact Audio Copy V1.0 beta 3 from 29. August 2011

EAC extraction logfile from 6. March 2017, 22:12

L'Arte Del Mondo, Werner Ehrhardt / Gluck - La clemenza di Tito CD2

Used drive : PIONEER BD-RW BDR-207M Adapter: 0 ID: 0

Read mode : Secure
Utilize accurate stream : Yes
Defeat audio cache : Yes
Make use of C2 pointers : No

Read offset correction : 667
Overread into Lead-In and Lead-Out : No
Fill up missing offset samples with silence : Yes
Delete leading and trailing silent blocks : No
Null samples used in CRC calculations : Yes
Used interface : Native Win32 interface for Win NT & 2000

Used output format : User Defined Encoder
Selected bitrate : 128 kBit/s
Quality : High
Add ID3 tag : No
Command line compressor : C:\Program Files\Exact Audio Copy\Flac\flac.exe
Additional command line options : -V -8 -T "Date=%year%" -T "Genre=%genre%" %source%


TOC of the extracted CD

Track | Start | Length | Start sector | End sector
––––––––––––––––––––––––––––-
1 | 0:00.00 | 0:29.32 | 0 | 2206
2 | 0:29.32 | 7:37.27 | 2207 | 36508
3 | 8:06.59 | 0:32.18 | 36509 | 38926
4 | 8:39.02 | 2:45.47 | 38927 | 51348
5 | 11:24.49 | 8:25.44 | 51349 | 89267
6 | 19:50.18 | 3:37.18 | 89268 | 105560
7 | 23:27.36 | 3:13.20 | 105561 | 120055
8 | 26:40.56 | 1:13.58 | 120056 | 125588
9 | 27:54.39 | 1:41.32 | 125589 | 133195
10 | 29:35.71 | 11:38.00 | 133196 | 185545


Range status and errors

Selected range

Filename C:\Gluck - La clemenza di Tito CD2.wav

Peak level 98.8 %
Extraction speed 4.2 X
Range quality 100.0 %
Test CRC B8F62696
Copy CRC B8F62696
Copy OK

No errors occurred

End of status report

==== Log checksum 1523CED2B9489F4C9A7B903BDA70BB626B3BD68062B3AAC349008CFA0B12C15C ====


Exact Audio Copy V1.0 beta 3 from 29. August 2011

EAC extraction logfile from 6. March 2017, 22:57

L'Arte del Mondo, Werner Ehrhardt / Gluck - La clemenza di Tito CD3

Used drive : PIONEER BD-RW BDR-207M Adapter: 0 ID: 0

Read mode : Secure
Utilize accurate stream : Yes
Defeat audio cache : Yes
Make use of C2 pointers : No

Read offset correction : 667
Overread into Lead-In and Lead-Out : No
Fill up missing offset samples with silence : Yes
Delete leading and trailing silent blocks : No
Null samples used in CRC calculations : Yes
Used interface : Native Win32 interface for Win NT & 2000

Used output format : User Defined Encoder
Selected bitrate : 128 kBit/s
Quality : High
Add ID3 tag : No
Command line compressor : C:\Program Files\Exact Audio Copy\Flac\flac.exe
Additional command line options : -V -8 -T "Date=%year%" -T "Genre=%genre%" %source%


TOC of the extracted CD

Track | Start | Length | Start sector | End sector
––––––––––––––––––––––––––––-
1 | 0:00.00 | 1:43.70 | 0 | 7794
2 | 1:43.70 | 0:11.46 | 7795 | 8665
3 | 1:55.41 | 1:03.25 | 8666 | 13415
4 | 2:58.66 | 1:03.55 | 13416 | 18195
5 | 4:02.46 | 6:51.00 | 18196 | 49020
6 | 10:53.46 | 0:31.20 | 49021 | 51365
7 | 11:24.66 | 6:21.73 | 51366 | 80013
8 | 17:46.64 | 3:10.01 | 80014 | 94264
9 | 20:56.65 | 6:20.36 | 94265 | 122800
10 | 27:17.26 | 3:38.04 | 122801 | 139154
11 | 30:55.30 | 7:27.34 | 139155 | 172713
12 | 38:22.64 | 1:55.66 | 172714 | 181404
13 | 40:18.55 | 1:25.72 | 181405 | 187851
14 | 41:44.52 | 0:21.08 | 187852 | 189434
15 | 42:05.60 | 2:51.45 | 189435 | 202304
16 | 44:57.30 | 4:20.47 | 202305 | 221851
17 | 49:18.02 | 0:42.09 | 221852 | 225010
18 | 50:00.11 | 7:25.35 | 225011 | 258420
19 | 57:25.46 | 1:07.73 | 258421 | 263518
20 | 58:33.44 | 0:40.52 | 263519 | 266570
21 | 59:14.21 | 10:23.60 | 266571 | 313355
22 | 69:38.06 | 1:01.66 | 313356 | 317996
23 | 70:39.72 | 7:34.63 | 317997 | 352109


Range status and errors

Selected range

Filename C:\Gluck - La clemenza di Tito CD3.wav

Peak level 99.9 %
Extraction speed 4.7 X
Range quality 100.0 %
Test CRC 1B1D3158
Copy CRC 1B1D3158
Copy OK

No errors occurred

End of status report

==== Log checksum 82E5942AC22DF3C2B40196AEDBEB00F831107A94E26178BBC0473C838A6E6F31 ====


Exact Audio Copy V1.0 beta 3 from 29. August 2011

EAC extraction logfile from 6. March 2017, 23:30

L'Arte del Mondo, Werner Ehrhardt / Gluck - La clemenza di Tito CD4

Used drive : PIONEER BD-RW BDR-207M Adapter: 0 ID: 0

Read mode : Secure
Utilize accurate stream : Yes
Defeat audio cache : Yes
Make use of C2 pointers : No

Read offset correction : 667
Overread into Lead-In and Lead-Out : No
Fill up missing offset samples with silence : Yes
Delete leading and trailing silent blocks : No
Null samples used in CRC calculations : Yes
Used interface : Native Win32 interface for Win NT & 2000

Used output format : User Defined Encoder
Selected bitrate : 128 kBit/s
Quality : High
Add ID3 tag : No
Command line compressor : C:\Program Files\Exact Audio Copy\Flac\flac.exe
Additional command line options : -V -8 -T "Date=%year%" -T "Genre=%genre%" %source%


TOC of the extracted CD

Track | Start | Length | Start sector | End sector
––––––––––––––––––––––––––––-
1 | 0:00.00 | 1:14.65 | 0 | 5614
2 | 1:14.65 | 5:31.14 | 5615 | 30453
3 | 6:46.04 | 1:22.38 | 30454 | 36641
4 | 8:08.42 | 0:48.41 | 36642 | 40282
5 | 8:57.08 | 2:05.15 | 40283 | 49672
6 | 11:02.23 | 1:06.42 | 49673 | 54664
7 | 12:08.65 | 0:27.23 | 54665 | 56712
8 | 12:36.13 | 5:53.58 | 56713 | 83245
9 | 18:29.71 | 2:35.07 | 83246 | 94877
10 | 21:05.03 | 2:59.36 | 94878 | 108338
11 | 24:04.39 | 0:18.16 | 108339 | 109704
12 | 24:22.55 | 3:56.50 | 109705 | 127454
13 | 28:19.30 | 0:30.42 | 127455 | 129746
14 | 28:49.72 | 2:45.57 | 129747 | 142178
15 | 31:35.54 | 4:13.20 | 142179 | 161173
16 | 35:48.74 | 1:03.52 | 161174 | 165950
17 | 36:52.51 | 3:55.01 | 165951 | 183576
18 | 40:47.52 | 0:38.52 | 183577 | 186478
19 | 41:26.29 | 4:30.69 | 186479 | 206797
20 | 45:57.23 | 1:18.22 | 206798 | 212669


Range status and errors

Selected range

Filename C:\Gluck - La clemenza di Tito CD4.wav

Peak level 98.8 %
Extraction speed 4.3 X
Range quality 100.0 %
Test CRC E98313EA
Copy CRC E98313EA
Copy OK

No errors occurred

End of status report

==== Log checksum D0133176881247C9E823EDFD77A75FFA300201A48C9708EAA913BA957DE1A155 ====