Subcategories

Gong - Angel's Egg: Radio Gnome Invisble Part 2 (1973) {Reissue}

Posted By: popsakov
Gong - Angel's Egg: Radio Gnome Invisble Part 2 (1973) {Reissue}

Gong - Angel's Egg: Radio Gnome Invisble Part 2 (1973) {Reissue}
EAC Rip | FLAC (Img) + Cue + Log ~ 295 Mb | MP3 CBR320 ~ 124 Mb
Scans Included (JPG, 300 dpi) | RAR 5% Recovery
Psychedelic Rock, Progressive Rock, Space Rock, Canterbury Scene | Virgin #CDV 2007 / 0777 7 87242 2 3

Angels Egg is the fourth studio album by the progressive rock band Gong, released on Virgin Records in December 1973. Angels Egg is the second in Gong's Radio Gnome Invisible trilogy of albums, following Flying Teapot and preceding You. The trilogy forms a central part of the Gong mythology. The original album did not have an apostrophe in the title. The CD version released by Virgin Records, and later reissued on Charly Records contains an extra track: "Ooby-Scooby Doomsday or The D-day DJ's Got the D.D.T. Blues", that ends with a male voice choir glissando (questionably regarded by some as a parody on Pink Floyd's "Echoes"), starting with "Ahhhh" and ending with "Chooo", mimicking a sneeze. The track was originally released on the Live Etc. album but was excluded from the CD release (which reissued that double album as one disc), and included on this album instead.
~ Wiki

The companion piece to The Flying Teapot, Angel's Egg is not your usual progressive rock album. Very quirky, with many, mostly brief compositions, the album is a tad less spacy than Teapot, with just a few psychedelic-inspired lyrics, and it's very technically adept. Angel's Egg opens with a true space rock cut (one of the few on the album), filled with the usual Gilli Smyth space whispering and Daevid Allen voicings, then leads into the cleverly titled "Sold to the Highest Buddha," with Steve Hillage and Didier Malherbe prominent figures. The instrumental "Castle in the Clouds" finds Hillage coming into his own, with a sound identical to his solo work. "Givin' My Love to You" sounds like a bar song, with no music and a cluster of seemingly drunken fellas trying to sing. The instrumental "Flute Salad" gives way to "Oily Way," a showcase for Malherbe's jazzy flute. "Inner Temple," an instrumental space rock track, moves along with a jazz edge, provided by Malherbe's sax. The final three tracks are the real highlights on Angel's Egg. "I Never Glid Before" is a fantastic prog rock tune, replete with blistering Hillage solo, primo Allen lyrics and vocal, and the precise percussion of new bandmember Pierre Moerlen. This eclectic composition travels through several movements and time changes, and comes across as a perpetually progressing piece. The imaginative and jazzy "Eat That Phone Book Coda" brings the album to a close.
~ David Ross Smith, All Music

***************

Gong - Angel's Egg: Radio Gnome Invisble Part 2 (1973) {Reissue}

Gong - Angel's Egg: Radio Gnome Invisble Part 2 (1973) {Reissue}

Track List:

01. Other Side of the Sky [7:40]
02. Sold to the Highest Buddha [4:25]
03. Castle in the Clouds [1:16]
04. Prostitute Poem [4:53]
05. Givin My Luv to You [0:48]
06. Selene [3:38]
07. Flute Salad [2:09]
08. Oily Way [3:37]
09. Outer Temple [1:09]
10. Inner Temple [2:34]
11. Percolations [0:46]
12. Love is How Y Make It [3:28]
13. I Never Glid Before [5:37]
14. Eat that Phone Book Coda [3:13]
15. Ooby-Scooby Doomsday or The D-day DJ's Got the D.D.T. Blues (CD Bonus Track) [5:09]

Personnel:
Daevid Allen - vocals, guitar
Gilli Smyth - vocals
Steve Hillage - guitars
Tim Blake - VCS3 synth, vocals
Didier Malherbe - tenor & soprano saxes, flute, backing vocals
Mike Howlett - bass
Pierre Moerlen - drums, vibes, marimba
Mireille Bauer - glockenspiel

Exact Audio Copy V1.0 beta 3 from 29. August 2011

EAC extraction logfile from 24. October 2017, 20:44

Gong / Angel's Egg (Radio Gnome Invisble Part 2)

Used drive : PLEXTOR DVDR PX-740A Adapter: 0 ID: 0

Read mode : Secure
Utilize accurate stream : Yes
Defeat audio cache : Yes
Make use of C2 pointers : No

Read offset correction : 618
Overread into Lead-In and Lead-Out : No
Fill up missing offset samples with silence : Yes
Delete leading and trailing silent blocks : No
Null samples used in CRC calculations : Yes
Used interface : Native Win32 interface for Win NT & 2000

Used output format : Internal WAV Routines
Sample format : 44.100 Hz; 16 Bit; Stereo


TOC of the extracted CD

Track | Start | Length | Start sector | End sector
––––––––––––––––––––––––––––-
1 | 0:00.00 | 7:40.25 | 0 | 34524
2 | 7:40.25 | 4:24.47 | 34525 | 54371
3 | 12:04.72 | 1:15.48 | 54372 | 60044
4 | 13:20.45 | 4:52.45 | 60045 | 81989
5 | 18:13.15 | 0:48.00 | 81990 | 85589
6 | 19:01.15 | 3:38.17 | 85590 | 101956
7 | 22:39.32 | 2:09.33 | 101957 | 111664
8 | 24:48.65 | 3:37.07 | 111665 | 127946
9 | 28:25.72 | 1:08.53 | 127947 | 133099
10 | 29:34.50 | 2:33.62 | 133100 | 144636
11 | 32:08.37 | 0:46.23 | 144637 | 148109
12 | 32:54.60 | 3:28.02 | 148110 | 163711
13 | 36:22.62 | 5:37.15 | 163712 | 189001
14 | 42:00.02 | 3:13.10 | 189002 | 203486
15 | 45:13.12 | 5:08.55 | 203487 | 226641


Range status and errors

Selected range

Filename C:\MUSIC\CD Rips_J\Gong Egg\Gong - Angel's Egg (Radio Gnome Invisble Part 2).wav

Peak level 100.0 %
Extraction speed 8.4 X
Range quality 99.9 %
Copy CRC 3868A87A
Copy OK

No errors occurred


AccurateRip summary

Track 1 accurately ripped (confidence 9) [C0A6B3AB] (AR v2)
Track 2 accurately ripped (confidence 10) [18441471] (AR v2)
Track 3 accurately ripped (confidence 10) [C8B4224F] (AR v2)
Track 4 accurately ripped (confidence 10) [FBF2D131] (AR v2)
Track 5 accurately ripped (confidence 10) [3E5FAFBD] (AR v2)
Track 6 accurately ripped (confidence 9) [AF2C3965] (AR v2)
Track 7 accurately ripped (confidence 10) [C6178290] (AR v2)
Track 8 accurately ripped (confidence 10) [8A032421] (AR v2)
Track 9 accurately ripped (confidence 10) [A311CC17] (AR v2)
Track 10 accurately ripped (confidence 10) [6BCE8D82] (AR v2)
Track 11 accurately ripped (confidence 10) [9B0B388A] (AR v2)
Track 12 accurately ripped (confidence 10) [26CB452F] (AR v2)
Track 13 accurately ripped (confidence 9) [9AF879D7] (AR v2)
Track 14 accurately ripped (confidence 9) [AFE8EAE4] (AR v2)
Track 15 accurately ripped (confidence 9) [DF1279EC] (AR v2)

All tracks accurately ripped

End of status report

==== Log checksum 738E8356AB7FB2F29ED76B8502425BEFF44EA90A998BBB77811A00E8394EF2B0 ====

foobar2000 1.3.16 / Dynamic Range Meter 1.1.1
log date: 2017-11-05 19:58:05

––––––––––––––––––––––––––––––––––––––––
Analyzed: Gong / Angel's Egg (Radio Gnome Invisble Part 2)
––––––––––––––––––––––––––––––––––––––––

DR Peak RMS Duration Track
––––––––––––––––––––––––––––––––––––––––
DR11 -2.84 dB -19.66 dB 7:40 01-Other Side of the Sky
DR12 0.00 dB -15.07 dB 4:25 02-Sold to the Highest Buddha
DR10 -2.71 dB -18.63 dB 1:16 03-Castle in the Clouds
DR13 -2.38 dB -18.05 dB 4:53 04-Prostitute Poem
DR10 -6.40 dB -20.13 dB 0:48 05-Givin My Luv to You
DR10 -0.71 dB -13.84 dB 3:38 06-Selene
DR7 -12.20 dB -24.42 dB 2:09 07-Flute Salad
DR11 -0.71 dB -14.80 dB 3:37 08-Oily Way
DR10 -1.12 dB -14.47 dB 1:09 09-Outer Temple
DR10 -1.37 dB -13.70 dB 2:34 10-Inner Temple
DR14 -8.07 dB -25.74 dB 0:46 11-Percolations
DR11 -0.59 dB -17.38 dB 3:28 12-Love is How Y Make It
DR12 -0.19 dB -15.98 dB 5:37 13-I Never Glid Before
DR11 -1.72 dB -17.87 dB 3:13 14-Eat that Phone Book Coda
DR14 -0.22 dB -17.46 dB 5:09 15-Ooby-Scooby Doomsday or The D-day DJ's Got the D.D.T. Blues (CD Bonus Track)
––––––––––––––––––––––––––––––––––––––––

Number of tracks: 15
Official DR value: DR11

Samplerate: 44100 Hz
Channels: 2
Bits per sample: 16
Bitrate: 772 kbps
Codec: FLAC
================================================================================

[CUETools log; Date: 05.11.2017 19:58:11; Version: 2.1.5]
[CTDB TOCID: rtLs63wmde3V78jAi5jwAZL6MOU-] found.
Track | CTDB Status
1 | (100/102) Accurately ripped
2 | ( 98/102) Accurately ripped
3 | ( 51/102) Accurately ripped
4 | ( 52/102) Accurately ripped
5 | ( 51/102) Accurately ripped
6 | ( 52/102) Accurately ripped
7 | ( 98/102) Accurately ripped
8 | ( 98/102) Accurately ripped
9 | ( 99/102) Accurately ripped
10 | ( 51/102) Accurately ripped
11 | ( 98/102) Accurately ripped
12 | ( 50/102) Accurately ripped
13 | ( 51/102) Accurately ripped
14 | ( 50/102) Accurately ripped
15 | ( 50/102) Accurately ripped
[AccurateRip ID: 001c7c1d-0135da87-c90bcd0f] found.
Track [ CRC | V2 ] Status
01 [a9eaaba5|c0a6b3ab] (07+09/84) Accurately ripped
02 [87647452|18441471] (07+10/85) Accurately ripped
03 [01b76867|c8b4224f] (07+10/82) Accurately ripped
04 [5b5c2454|fbf2d131] (07+10/85) Accurately ripped
05 [5c14df28|3e5fafbd] (07+10/82) Accurately ripped
06 [96741bfc|af2c3965] (07+09/84) Accurately ripped
07 [e176abc5|c6178290] (07+10/85) Accurately ripped
08 [86c4d759|8a032421] (07+10/85) Accurately ripped
09 [1028f968|a311cc17] (07+10/85) Accurately ripped
10 [04b1b4da|6bce8d82] (08+10/85) Accurately ripped
11 [468e8186|9b0b388a] (07+10/85) Accurately ripped
12 [ea32ac29|26cb452f] (07+10/82) Accurately ripped
13 [da45eaff|9af879d7] (07+09/81) Accurately ripped
14 [07b4c9fe|afe8eae4] (07+09/81) Accurately ripped
15 [f93f0a64|df1279ec] (06+09/82) Accurately ripped
Offsetted by 749:
01 [491d621b] (08/84) Accurately ripped
02 [af1662a2] (08/85) Accurately ripped
03 [af6f051e] (08/82) Accurately ripped
04 [d249aeae] (08/85) Accurately ripped
05 [2f4fad82] (08/82) Accurately ripped
06 [f5ce689d] (08/84) Accurately ripped
07 [8868e95b] (08/85) Accurately ripped
08 [c8b8e389] (08/85) Accurately ripped
09 [c3d26567] (08/85) Accurately ripped
10 [211a59f1] (08/85) Accurately ripped
11 [de47f9e6] (08/85) Accurately ripped
12 [c6411313] (08/82) Accurately ripped
13 [41b2a2a5] (08/81) Accurately ripped
14 [d065fa96] (08/81) Accurately ripped
15 [ca9f77b3] (07/82) Accurately ripped
Offsetted by -2184:
01 [a26d994d] (00/84) No match (V2 was not tested)
02 [b48a17a4] (00/85) No match (V2 was not tested)
03 [55213996] (00/82) No match
04 [82f55b5e] (00/85) No match (V2 was not tested)
05 [0cb06b7e] (00/82) No match
06 [4a072a67] (00/84) No match (V2 was not tested)
07 [b859796d] (00/85) No match (V2 was not tested)
08 [6e6bae26] (00/85) No match (V2 was not tested)
09 [a0730e38] (00/85) No match (V2 was not tested)
10 [683d4b7b] (00/85) No match
11 [df0d4f0f] (00/85) No match
12 [260e9562] (00/82) No match
13 [3d57b5c9] (00/81) No match
14 [fc03fefe] (00/81) No match
15 [65de9966] (00/82) No match (V2 was not tested)
Offsetted by -1811:
01 [dc2894f7] (00/84) No match
02 [5d05c7d6] (00/85) No match
03 [4a972117] (00/82) No match
04 [143daccf] (00/85) No match
05 [019b768e] (00/82) No match
06 [5aa42c92] (00/84) No match
07 [d7e5a60f] (00/85) No match
08 [abc02f22] (00/85) No match
09 [bab3d690] (00/85) No match
10 [c31d8e4c] (00/85) No match (V2 was not tested)
11 [e518ff2c] (00/85) No match (V2 was not tested)
12 [21fe02fc] (00/82) No match
13 [605bc6b0] (00/81) No match
14 [af0ff4c8] (00/81) No match
15 [44aebabf] (00/82) No match
Offsetted by -1649:
01 [a24af34a] (05/84) Accurately ripped
02 [f7bd7a32] (05/85) Accurately ripped
03 [b5a7ff4f] (00/82) No match (V2 was not tested)
04 [25104038] (00/85) No match (V2 was not tested)
05 [fcbde80a] (00/82) No match (V2 was not tested)
06 [4a8a4e66] (00/84) No match (V2 was not tested)
07 [9575121e] (05/85) Accurately ripped
08 [ed62926c] (05/85) Accurately ripped
09 [032d76ba] (05/85) Accurately ripped
10 [097e2383] (00/85) No match
11 [f0d625f4] (00/85) No match
12 [b17a4c1e] (00/82) No match
13 [e6ccf890] (00/81) No match
14 [58fdf1da] (00/81) No match
15 [3e3aec93] (00/82) No match (V2 was not tested)
Offsetted by -1276:
01 [3ac166f6] (00/84) No match
02 [65f6ee72] (00/85) No match
03 [7eaa2c97] (00/82) No match
04 [2031b903] (00/85) No match
05 [4ca48b86] (00/82) No match
06 [c9c839cc] (00/84) No match
07 [98697ea9] (00/85) No match
08 [eb41114b] (00/85) No match
09 [80472bad] (00/85) No match
10 [4e6daa2c] (00/85) No match (V2 was not tested)
11 [3d28630f] (05/85) Accurately ripped
12 [0143767e] (00/82) No match (V2 was not tested)
13 [939f7d73] (00/81) No match (V2 was not tested)
14 [96fc0bb0] (00/81) No match (V2 was not tested)
15 [b316198d] (00/82) No match
Offsetted by -714:
01 [4500ea72] (03/84) Accurately ripped
02 [ece04f14] (03/85) Accurately ripped
03 [3717361a] (00/82) No match (V2 was not tested)
04 [5e5ea3c3] (00/85) No match (V2 was not tested)
05 [aed1e91d] (00/82) No match (V2 was not tested)
06 [a4c83390] (00/84) No match (V2 was not tested)
07 [ee87e56c] (03/85) Accurately ripped
08 [eee9cc48] (03/85) Accurately ripped
09 [c11edca8] (03/85) Accurately ripped
10 [e7e331c4] (00/85) No match
11 [d4d3ab9a] (00/85) No match
12 [59bc3e15] (00/82) No match
13 [472e90bf] (00/81) No match
14 [d80def14] (00/81) No match
15 [2cd00a9e] (00/82) No match (V2 was not tested)
Offsetted by -341:
01 [57849c94] (00/84) No match
02 [6f349a40] (00/85) No match
03 [3a2299ee] (00/82) No match
04 [6f4ed472] (00/85) No match
05 [132e58cd] (00/82) No match
06 [cd6ef9d0] (00/84) No match
07 [d0e3c4bc] (00/85) No match
08 [2d12f4e5] (00/85) No match
09 [e9f895c8] (00/85) No match
10 [86fccd71] (00/85) No match (V2 was not tested)
11 [1c41ff51] (03/85) Accurately ripped
12 [71c89c1c] (00/82) No match (V2 was not tested)
13 [dd365435] (00/81) No match (V2 was not tested)
14 [2fed321b] (00/81) No match (V2 was not tested)
15 [edf36111] (00/82) No match
Offsetted by -338:
01 [9ea6b247] (00/84) No match (V2 was not tested)
02 [73fb3085] (00/85) No match (V2 was not tested)
03 [2834a87a] (00/82) No match (V2 was not tested)
04 [b70b01b6] (00/85) No match (V2 was not tested)
05 [dffb325b] (00/82) No match (V2 was not tested)
06 [2a3c6288] (00/84) No match (V2 was not tested)
07 [3e7e86d6] (00/85) No match (V2 was not tested)
08 [ff71e04b] (00/85) No match (V2 was not tested)
09 [b4642bfa] (00/85) No match (V2 was not tested)
10 [a8b3cc82] (00/85) No match
11 [6cabded4] (00/85) No match
12 [6b5397e5] (00/82) No match
13 [25f921bf] (00/81) No match
14 [92b62974] (00/81) No match
15 [c62c0538] (00/82) No match (V2 was not tested)
Offsetted by -219:
01 [06ff54b2] (17/84) Accurately ripped
02 [eaa545ab] (17/85) Accurately ripped
03 [fc1014c8] (00/82) No match (V2 was not tested)
04 [26e690d9] (00/85) No match (V2 was not tested)
05 [9b150ec3] (00/82) No match (V2 was not tested)
06 [d07ec5bd] (00/84) No match (V2 was not tested)
07 [f0a440a5] (17/85) Accurately ripped
08 [e69f78ad] (17/85) Accurately ripped
09 [094300e0] (17/85) Accurately ripped
10 [c3db8c6f] (00/85) No match
11 [72acdcb1] (00/85) No match
12 [5930622f] (00/82) No match
13 [87742fc7] (00/81) No match
14 [ebbd9dde] (00/81) No match
15 [93ebb6e3] (00/82) No match (V2 was not tested)
Offsetted by -86:
01 [9a80a00d] (00/84) No match (V2 was not tested)
02 [0225a2ba] (00/85) No match (V2 was not tested)
03 [1458ca46] (00/82) No match (V2 was not tested)
04 [32c1cb44] (00/85) No match (V2 was not tested)
05 [a02e2bfb] (00/82) No match (V2 was not tested)
06 [f5b48c5f] (00/84) No match (V2 was not tested)
07 [4f803052] (00/85) No match (V2 was not tested)
08 [13830dee] (00/85) No match (V2 was not tested)
09 [4a7ebf02] (00/85) No match (V2 was not tested)
10 [20202cc1] (00/85) No match (V2 was not tested)
11 [54efe35f] (00/85) No match (V2 was not tested)
12 [01d9b032] (00/82) No match (V2 was not tested)
13 [ccbd9d91] (00/81) No match (V2 was not tested)
14 [03fbb711] (00/81) No match (V2 was not tested)
15 [92608e37] (00/82) No match (V2 was not tested)
Offsetted by 35:
01 [329fcf3e] (00/84) No match
02 [c812b58f] (00/85) No match
03 [13aa9321] (00/82) No match
04 [2cd737fa] (00/85) No match
05 [044a34df] (00/82) No match
06 [1253722d] (00/84) No match
07 [0c4cfb16] (00/85) No match
08 [9ea2ea1b] (00/85) No match
09 [5ee08a7d] (00/85) No match
10 [346c6e41] (00/85) No match (V2 was not tested)
11 [0be2c944] (00/85) No match (V2 was not tested)
12 [184f8535] (00/82) No match (V2 was not tested)
13 [cd25a6a3] (00/81) No match (V2 was not tested)
14 [8a8eb585] (00/81) No match (V2 was not tested)
15 [14f2c081] (00/82) No match
Offsetted by 154:
01 [d3cffbb4] (00/84) No match
02 [a5db38cb] (00/85) No match
03 [bae8e324] (00/82) No match
04 [6e776b92] (00/85) No match
05 [bfc32545] (00/82) No match
06 [f4516687] (00/84) No match
07 [f1d112e9] (00/85) No match
08 [214839d9] (00/85) No match
09 [24eda58b] (00/85) No match
10 [07c8d3a3] (00/85) No match (V2 was not tested)
11 [c8d0dc47] (17/85) Accurately ripped
12 [5905108f] (00/82) No match (V2 was not tested)
13 [319a5bf7] (00/81) No match (V2 was not tested)
14 [41ad9005] (00/81) No match (V2 was not tested)
15 [985f1d91] (00/82) No match

Track Peak [ CRC32 ] [W/O NULL] [ LOG ]
– 100,0 [3868A87A] [66096443] CRC32
01 72,1 [D87621AE] [7125B063]
02 100,0 [F5024C45] [30E9DFDE]
03 73,2 [2D5780DA] [7FF1B290]
04 76,0 [232A34CC] [EBFD3EC8]
05 47,8 [939D9CF9] [EF8774BE]
06 92,1 [87FDF1D5] [D267D55A]
07 24,5 [BFFA1B63] [107A8B4C]
08 92,1 [E91D0432] [941B9816]
09 87,9 [E7C28A98] [C2EE0B32]
10 85,4 [9169E446] [A7609FE4]
11 39,4 [8D922F87] [B994D1F6]
12 93,4 [78D4D091] [F379CF38]
13 97,8 [3DA469D1] [CF8084FB]
14 82,0 [E5ECE3F9] [DE5834BE]
15 97,5 [FB47BB25] [8D0FE315]

Gong - Angel's Egg: Radio Gnome Invisble Part 2 (1973) {Reissue}

See also:
Gong - Camembert Electrique (1971) {1990, Reissue}
Gong - Flying Teapot: Radio Gnome Invisible Part 1 (1973) {1990, Reissue}

All thanks go to Juergen

>>> Daevid Allen in my Blog <<<

Download from icerbox.com: