Subcategories

Gonzalo De Olavide - Orchestral Works - Tamayo (RTVE)

Posted By: mrjansons
Gonzalo De Olavide - Orchestral Works - Tamayo (RTVE)

Gonzalo De Olavide - Orchestral Works - Tamayo (RTVE)
EAC 099pb4 Rip | APE+CUE, LOGs | 51:38 min | 172 MB 300 dpi PDF Complete Scans
Genre: Classical - Contemporary| Label: RTVE Música

Hello buddies! Olavide was a respected composer of the spanish scene, but not too performed, maybe, because he lived in Switzerland for more than 20 years and was a bit far from his spanish fellow composers...

Taken from Wikipedia:

Olavide studied composition initially with Victorino Echevarría at the Conservatorio Superior de Madrid, then in Belgium at the conservatories of Antwerp and Brussels. He attended the Darmstadt Internationale Ferienkurse für Neue Musik where he worked with Pierre Boulez and Luciano Berio, and later studied with Karlheinz Stockhausen and Henri Pousseur at the Second, Third, and Fourth Cologne Courses for New Music in 1964–65, 1965–66, and 1966–67. For twenty years he lived and worked in Geneva, returning to Spain in 1991. Olavide composed orchestral, chamber, solo, and electronic music. In 1986 he received the Premio Nacional de Música, and in 2001 the Premio Reina Sofia.



Exact Audio Copy V0.99 prebeta 4 from 23. January 2008

EAC extraction logfile from 2. May 2009, 21:54

RTVE & Madrid Symphony orchestras - Antoni Ros Marbá & Arturo Tamayo / Gonzalo de Olavide - Orchestral Works

Used drive : HL-DT-STDVD-ROM GDR8163B Adapter: 1 ID: 1

Read mode : Secure
Utilize accurate stream : Yes
Defeat audio cache : Yes
Make use of C2 pointers : No

Read offset correction : 102
Overread into Lead-In and Lead-Out : No
Fill up missing offset samples with silence : Yes
Delete leading and trailing silent blocks : No
Null samples used in CRC calculations : No
Used interface : Native Win32 interface for Win NT & 2000

Used output format : Internal WAV Routines
Sample format : 44.100 Hz; 16 Bit; Stereo


TOC of the extracted CD

Track | Start | Length | Start sector | End sector
––––––––––––––––––––––––––––-
1 | 0:00.00 | 11:47.00 | 0 | 53024
2 | 11:47.00 | 18:00.72 | 53025 | 134096
3 | 29:47.72 | 20:09.10 | 134097 | 224781


Range status and errors

Selected range

Filename C:\Documents and Settings\Administrador\Escritorio\Olavide\Gonzalo de Olavide - Orchestral Works.wav

Peak level 71.0 %
Range quality 100.0 %
Copy CRC E0865677
Copy OK

No errors occurred

End of status report




Gonzalo de Olavide

Orbe Variations for Orchestra*

Sinfonía "Homenaje a Falla"

Cante in Memoriam García Lorca+

RTVE Symphony Orchestra*

Antoni Ros Marbá*

María José Suarez - contralto+

Choir of the Community of Madrid+

Madrid Symphony Orchestra

Arturo Tamayo

CD - Rtve - Música - RNE - 65088

Recorded: II - 1990 6 XI - 1993, Monumental Theatre, Madrid

APE+CUE+SCANS (*.pdf)

Only one RS file! (Less than 200 MB)

http://rapidshare.com/files/228403402/OLVD.rar.html


PASSWORD: Tilia tomentosa