Good Dog Banned - Good Dog Banned (1973) [Reissue 1999]

Posted By: gribovar
Good Dog Banned - Good Dog Banned (1973) [Reissue 1999]

Good Dog Banned - Good Dog Banned (1973) [Reissue 1999]
EAC Rip | FLAC (tracks+.cue+log) - 242 MB | MP3 CBR 320 kbps (LAME 3.93) - 92 MB | Covers - 21 MB
Genre: Rock | RAR 3% Rec. | Label: Gear Fab (GF-125)

Although it ran parallel with the back-to-basics feeling that permeated the early '70s, Good Dog Banned arrived at a distinctive strain of organic rock that was much more joyous and good-timey than many of their musicians-in-arms. Their one stab at rock & roll immortality, Good Dog Banned seems oblivious to any sense of anger at the "failure" of the '60s dream to take complete effect as of 1971. Whereas some '60s expatriates were decrying the cultural revolution, Good Dog Banned were singing "Things Ain't so Bad," heading down to the river and drinking wine. There is no nostalgia, no cynicism present. The band was untethered, ingenuous. Perhaps it could be viewed as rose-colored hippie denial, but in retrospect, the pure, unselfconscious charisma and the lack of piety that Good Dog Banned inject into their only effort makes it seem less of its time than other bands of this ilk. Still, a lot of love and togetherness are espoused in Good Dog Banned's lyrics (cynics beware), and the members do seem to have a tightness that only comes from "Livin' in Harmony," as they sing on the final song on the album. Each of the members take a stab at singing lead, and each is a solid vocalist, but it is Lee Marks' wonderful, soul-drenched voice (like Bob Mosley in his softer moments) that is the clear standout. The music has the same funky, loose ensemble playing - from the sprinkling guitar chords on long groover "Smokestacks" to the steel pedal-led country-rock groove of "Rust & Decay" - and the same old-time country-boy sunniness of the Band and same-period Grateful Dead, only with more prevalent saxophone that keeps the music from seeming overtly wistful or nostalgic, not throwback as much as laid-back.
Tracklist:
01. Rollin' into Salyer
02. Smokestacks
03. Rust and Decay
04. Things Ain't So Bad
05. River Bummin'
06. Worthy
07. Don't Burn Baby Grow
08. Utah
09. Livin' in Harmony

Total time: 39:16

Exact Audio Copy V1.0 beta 1 from 15. November 2010

EAC extraction logfile from 19. May 2011, 0:11

Good Dog Banned / Good Dog Banned

Used drive : hp DVD A DH16ABLH Adapter: 0 ID: 0

Read mode : Secure
Utilize accurate stream : Yes
Defeat audio cache : Yes
Make use of C2 pointers : No

Read offset correction : 6
Overread into Lead-In and Lead-Out : No
Fill up missing offset samples with silence : Yes
Delete leading and trailing silent blocks : No
Null samples used in CRC calculations : Yes
Used interface : Native Win32 interface for Win NT & 2000
Gap handling : Appended to previous track

Used output format : User Defined Encoder
Selected bitrate : 1024 kBit/s
Quality : High
Add ID3 tag : No
Command line compressor : C:\Program Files (x86)\Exact Audio Copy\Flac\flac.exe
Additional command line options : -8 -V -T "ARTIST=%a" -T "TITLE=%t" -T "ALBUM=%g" -T "DATE=%y" -T "TRACKNUMBER=%n" -T "GENRE=%m" -T "COMMENT=%e" %j–picture="%i"%j %s -o %d


TOC of the extracted CD

Track | Start | Length | Start sector | End sector
––––––––––––––––––––––––––––-
1 | 0:00.00 | 5:32.17 | 0 | 24916
2 | 5:32.17 | 6:17.00 | 24917 | 53191
3 | 11:49.17 | 4:03.58 | 53192 | 71474
4 | 15:53.00 | 4:09.00 | 71475 | 90149
5 | 20:02.00 | 4:04.42 | 90150 | 108491
6 | 24:06.42 | 3:59.30 | 108492 | 126446
7 | 28:05.72 | 3:35.00 | 126447 | 142571
8 | 31:40.72 | 4:24.60 | 142572 | 162431
9 | 36:05.57 | 3:10.58 | 162432 | 176739


Track 1

Filename C:\Share1\Good Dog Banned\Good Dog Banned\01. Rollin' into Salyer.wav

Pre-gap length 0:00:02.00

Peak level 83.1 %
Extraction speed 3.6 X
Track quality 100.0 %
Test CRC 96F322C0
Copy CRC 96F322C0
Track not present in AccurateRip database
Copy OK

Track 2

Filename C:\Share1\Good Dog Banned\Good Dog Banned\02. Smokestacks.wav

Pre-gap length 0:00:01.45

Peak level 96.4 %
Extraction speed 4.2 X
Track quality 100.0 %
Test CRC FDE03FD1
Copy CRC FDE03FD1
Track not present in AccurateRip database
Copy OK

Track 3

Filename C:\Share1\Good Dog Banned\Good Dog Banned\03. Rust and Decay.wav

Pre-gap length 0:00:01.25

Peak level 100.0 %
Extraction speed 4.4 X
Track quality 100.0 %
Test CRC 27736705
Copy CRC 27736705
Track not present in AccurateRip database
Copy OK

Track 4

Filename C:\Share1\Good Dog Banned\Good Dog Banned\04. Things Ain't So Bad.wav

Pre-gap length 0:00:01.48

Peak level 77.3 %
Extraction speed 4.7 X
Track quality 100.0 %
Test CRC 6CD7D6FE
Copy CRC 6CD7D6FE
Track not present in AccurateRip database
Copy OK

Track 5

Filename C:\Share1\Good Dog Banned\Good Dog Banned\05. River Bummin'.wav

Pre-gap length 0:00:01.10

Peak level 92.5 %
Extraction speed 5.0 X
Track quality 100.0 %
Test CRC 1C08DAB5
Copy CRC 1C08DAB5
Track not present in AccurateRip database
Copy OK

Track 6

Filename C:\Share1\Good Dog Banned\Good Dog Banned\06. Worthy.wav

Peak level 100.0 %
Extraction speed 4.0 X
Track quality 99.9 %
Test CRC 483C951C
Copy CRC 483C951C
Track not present in AccurateRip database
Copy OK

Track 7

Filename C:\Share1\Good Dog Banned\Good Dog Banned\07. Don't Burn Baby Grow.wav

Pre-gap length 0:00:01.40

Peak level 100.0 %
Extraction speed 5.4 X
Track quality 100.0 %
Test CRC 403209DC
Copy CRC 403209DC
Track not present in AccurateRip database
Copy OK

Track 8

Filename C:\Share1\Good Dog Banned\Good Dog Banned\08. Utah.wav

Pre-gap length 0:00:01.30

Peak level 91.2 %
Extraction speed 5.7 X
Track quality 100.0 %
Test CRC 5E7F5355
Copy CRC 5E7F5355
Track not present in AccurateRip database
Copy OK

Track 9

Filename C:\Share1\Good Dog Banned\Good Dog Banned\09. Livin' in Harmony.wav

Pre-gap length 0:00:01.37

Peak level 83.1 %
Extraction speed 5.7 X
Track quality 100.0 %
Test CRC 80575055
Copy CRC 80575055
Track not present in AccurateRip database
Copy OK


None of the tracks are present in the AccurateRip database

No errors occurred

End of status report

==== Log checksum 5475E42009E11939A024F43FC8C4DD3E37ECE7BDB829FDEB4FF963BF92F65CDE ====

[CUETools log; Date: 10.10.2017 13:16:18; Version: 2.1.4]
[CTDB TOCID: Agn2pQ_ffmF3l1OVkdPtdWTIWwA-] disk not present in database.
[AccurateRip ID: 000e9801-00688da6-72093409] found.
Track [ CRC | V2 ] Status
01 [a5879872|7e94ed2e] (0+1/1) Accurately ripped
02 [d2d14094|ec8c1873] (0+1/1) Accurately ripped
03 [3191e38a|55bf148b] (0+1/1) Accurately ripped
04 [507c0c58|545863a4] (0+1/1) Accurately ripped
05 [2f6bb011|681d34a4] (0+1/1) Accurately ripped
06 [de53479d|b5b1558a] (0+1/1) Accurately ripped
07 [8e3b7c54|4120661a] (0+1/1) Accurately ripped
08 [3783bb42|1b964c9d] (0+1/1) Accurately ripped
09 [3271f474|d708a09d] (0+1/1) Accurately ripped

Track Peak [ CRC32 ] [W/O NULL] [ LOG ]
– 100,0 [D6C00D69] [178F8634]
01 83,1 [96F322C0] [80B9F688] CRC32
02 96,4 [FDE03FD1] [A47275BD] CRC32
03 100,0 [27736705] [A6D5DC77] CRC32
04 77,3 [6CD7D6FE] [29749C1A] CRC32
05 92,5 [1C08DAB5] [A5A94D29] CRC32
06 100,0 [483C951C] [C9710156] CRC32
07 100,0 [403209DC] [96A16CC0] CRC32
08 91,2 [5E7F5355] [D3DC86F8] CRC32
09 83,1 [80575055] [9362AF84] CRC32

Thanks to indiffer