Subcategories
Tags
Language
Tags

Gordian Knot - 2 Studio Albums (1999-2003) [Japanese Editions]

Posted By: gribovar
Gordian Knot - 2 Studio Albums (1999-2003) [Japanese Editions]

Gordian Knot - 2 Studio Albums (1999-2003) [Japanese Editions]
EAC Rip | FLAC (image+.cue+log) - 706 MB | MP3 CBR 320 kbps (LAME 3.93) - 277 MB | Covers - 94 MB
Genre: Instrumental Progressive Rock, Fusion | RAR 3% Rec. | Label: Avalon/Marquee Inc.

An all-instrumental group that mixed prog metal and jazz fusion with the more ethereal sounds of King Crimson, Gordian Knot was the project of bassist/stick player/keyboardist Sean Malone with several collaborators including guitarist Trey Gunn of King Crimson and former Cynic drummer Sean Reinert. Gordian Knot also included guitarists Ron Jarzombek and Glenn Snelwar. As well as playing atmospheric and heavy progressive music, the group also experimented on their eponymous debut with Eastern-influenced pieces. Malone soon began working on a sequel with a whole new roster of prog rock guests, including former Genesis guitarist Steve Hackett and former Yes drummer Bill Bruford.

Gordian Knot - 2 Studio Albums (1999-2003) [Japanese Editions]

Gordian Knot - Gordian Knot (1999) [Japanese Edition]
EAC Rip | FLAC (image+.cue+log) - 372 MB | MP3 CBR 320 kbps (LAME 3.93) - 150 MB | Covers - 52 MB
Genre: Instrumental Progressive Rock, Fusion | RAR 3% Rec. | Label: Avalon/Marquee Inc. (MICY-1084)

Tracklist:
01. Galois
02. Code/Anticode
03. Reflections
04. Megrez
05. Singularity
06. Redemption's Way
07. Komm Susser Tod, Komm Sel'ge
08. Rivers Dancing
09. Srikara Tal
10. Grace
11. Unquity Road (Bonus track)

Total time: 01:03:46

Exact Audio Copy V1.0 beta 1 from 15. November 2010

EAC extraction logfile from 3. July 2011, 12:39

Gordian Knot / Gordian Knot

Used drive : PLEXTOR DVDR PX-760A Adapter: 1 ID: 1

Read mode : Secure
Utilize accurate stream : Yes
Defeat audio cache : Yes
Make use of C2 pointers : No

Read offset correction : 30
Overread into Lead-In and Lead-Out : No
Fill up missing offset samples with silence : Yes
Delete leading and trailing silent blocks : No
Null samples used in CRC calculations : Yes
Used interface : Installed external ASPI interface

Used output format : Internal WAV Routines
Sample format : 44.100 Hz; 16 Bit; Stereo


TOC of the extracted CD

Track | Start | Length | Start sector | End sector
––––––––––––––––––––––––––––-
1 | 0:00.00 | 2:03.37 | 0 | 9261
2 | 2:03.37 | 6:47.18 | 9262 | 39804
3 | 8:50.55 | 6:49.45 | 39805 | 70524
4 | 15:40.25 | 3:57.72 | 70525 | 88371
5 | 19:38.22 | 4:45.63 | 88372 | 109809
6 | 24:24.10 | 6:59.30 | 109810 | 141264
7 | 31:23.40 | 2:21.42 | 141265 | 151881
8 | 33:45.07 | 7:36.63 | 151882 | 186144
9 | 41:21.70 | 9:25.47 | 186145 | 228566
10 | 50:47.42 | 7:29.70 | 228567 | 262311
11 | 58:17.37 | 5:29.13 | 262312 | 286999


Range status and errors

Selected range

Filename Z:\data\mp3\Seeding\Sean Malone\Gordian Knot-1999-Gordian Knot [Japan]\Gordian Knot (Japan).wav

Peak level 98.7 %
Extraction speed 0.6 X
Range quality 100.0 %
Test CRC 6F6D662D
Copy CRC 6F6D662D
Copy OK

No errors occurred


AccurateRip summary

Track 1 accurately ripped (confidence 1) [D9BB53FA]
Track 2 not present in database
Track 3 not present in database
Track 4 accurately ripped (confidence 1) [4A4659E3]
Track 5 not present in database
Track 6 not present in database
Track 7 accurately ripped (confidence 1) [3ED274A3]
Track 8 not present in database
Track 9 accurately ripped (confidence 1) [E60360D4]
Track 10 accurately ripped (confidence 1) [1786AC7C]
Track 11 accurately ripped (confidence 1) [7BE5B6D9]

6 track(s) accurately ripped
5 track(s) not present in the AccurateRip database

Some tracks could not be verified as accurate

End of status report

[CUETools log; Date: 27.06.2019 23:24:08; Version: 2.1.4]
[CTDB TOCID: 4ylWLHiiEYPe2wIXrYdl4xPQ8Zs-] found.
Track | CTDB Status
1 | (21/21) Accurately ripped
2 | (21/21) Accurately ripped
3 | (21/21) Accurately ripped
4 | (21/21) Accurately ripped
5 | (21/21) Accurately ripped
6 | (21/21) Accurately ripped
7 | (21/21) Accurately ripped
8 | (21/21) Accurately ripped
9 | (20/21) Accurately ripped
10 | (20/21) Accurately ripped
11 | (20/21) Accurately ripped
[AccurateRip ID: 00180821-00d5da66-990ef20b] found.
Track [ CRC | V2 ] Status
01 [d9bb53fa|966666bb] (0+5/8) Accurately ripped
02 [28819000|9d09395f] (0+5/8) Accurately ripped
03 [d85a0bc0|f983e787] (0+5/8) Accurately ripped
04 [4a4659e3|9df39eb7] (0+5/8) Accurately ripped
05 [3939e505|d7e28375] (0+5/8) Accurately ripped
06 [88e428c9|c60b64f3] (0+5/8) Accurately ripped
07 [3ed274a3|b615d81a] (0+5/8) Accurately ripped
08 [830700e9|fd29cf37] (0+5/8) Accurately ripped
09 [e60360d4|1d8e3b0e] (0+5/8) Accurately ripped
10 [1786ac7c|7d7fb37a] (0+5/8) Accurately ripped
11 [7be5b6d9|2fc57c5f] (0+5/8) Accurately ripped
Offsetted by -410:
01 [ed6787a5] (0/8) No match (V2 was not tested)
02 [dbc06ad9] (0/8) No match (V2 was not tested)
03 [6b04c9fc] (0/8) No match (V2 was not tested)
04 [1728edfb] (0/8) No match (V2 was not tested)
05 [a59115d3] (0/8) No match (V2 was not tested)
06 [91bcb519] (0/8) No match (V2 was not tested)
07 [8aa9129c] (0/8) No match (V2 was not tested)
08 [4bfa4f2c] (0/8) No match (V2 was not tested)
09 [56b97d04] (0/8) No match (V2 was not tested)
10 [8120d78e] (0/8) No match (V2 was not tested)
11 [3eba3c06] (0/8) No match (V2 was not tested)

Track Peak [ CRC32 ] [W/O NULL] [ LOG ]
– 98,7 [6F6D662D] [EFA7AF38] CRC32
01 98,7 [EE189B06] [4AC2D64A]
02 98,7 [01F902C9] [6036745F]
03 98,7 [2FE25D6B] [50412A2D]
04 58,5 [CB1147D8] [BB4B999F]
05 98,7 [B37FBF1F] [32C532AF]
06 91,2 [F9C37FF3] [DDBD8600]
07 53,0 [EAFEAD0A] [D8CE8055]
08 98,7 [87AFB7A7] [1579FCD7]
09 98,7 [46D5F3C6] [09D80327]
10 77,1 [A8B26DE6] [F08D849A]
11 98,7 [F7049837] [8B61EDE7]

Gordian Knot - 2 Studio Albums (1999-2003) [Japanese Editions]

Gordian Knot - Emergent (2003) [Japanese Edition]
EAC Rip | FLAC (image+.cue+log) - 334 MB | MP3 CBR 320 kbps (LAME 3.93) - 127 MB | Covers - 42 MB
Genre: Instrumental Progressive Rock, Fusion | RAR 3% Rec. | Label: Avalon/Marquee Inc. (MICP-10343)

Tracklist:
01. Arsis
02. Muttersprache
03. A Shaman's Whisper
04. Fischer's Gambit
05. Grace (Live)
06. Some Brighter Thing
07. The Brook The Ocean
08. Singing Deep Mountain
09. Surround Me (Bonus Track)

Total time: 53:58

Exact Audio Copy V1.0 beta 1 from 15. November 2010

EAC extraction logfile from 3. July 2011, 12:38

Gordian Knot / Emergent [Japan]

Used drive : LITE-ON DVDRW LH-20A1L Adapter: 5 ID: 0

Read mode : Secure
Utilize accurate stream : Yes
Defeat audio cache : Yes
Make use of C2 pointers : No

Read offset correction : 6
Overread into Lead-In and Lead-Out : No
Fill up missing offset samples with silence : Yes
Delete leading and trailing silent blocks : No
Null samples used in CRC calculations : Yes
Used interface : Installed external ASPI interface

Used output format : Internal WAV Routines
Sample format : 44.100 Hz; 16 Bit; Stereo


TOC of the extracted CD

Track | Start | Length | Start sector | End sector
––––––––––––––––––––––––––––-
1 | 0:00.00 | 1:59.67 | 0 | 8991
2 | 1:59.67 | 6:26.43 | 8992 | 37984
3 | 8:26.35 | 6:33.17 | 37985 | 67476
4 | 14:59.52 | 5:43.20 | 67477 | 93221
5 | 20:42.72 | 8:27.61 | 93222 | 131307
6 | 29:10.58 | 7:34.10 | 131308 | 165367
7 | 36:44.68 | 4:06.55 | 165368 | 183872
8 | 40:51.48 | 9:00.04 | 183873 | 224376
9 | 49:51.52 | 4:06.27 | 224377 | 242853


Range status and errors

Selected range

Filename Z:\data\mp3\Seeding\Sean Malone\Gordian Knot-2003-Emergent [Japan]\Emergent (Japan).wav

Peak level 100.0 %
Extraction speed 0.2 X
Range quality 100.0 %
Test CRC B48C1F56
Copy CRC B48C1F56
Copy OK

No errors occurred


AccurateRip summary

Track 1 accurately ripped (confidence 5) [EC5EB0E9]
Track 2 accurately ripped (confidence 6) [2B532D8B]
Track 3 accurately ripped (confidence 6) [15DF1E7D]
Track 4 accurately ripped (confidence 6) [1974D4A2]
Track 5 accurately ripped (confidence 5) [B10C808A]
Track 6 accurately ripped (confidence 6) [7458A30E]
Track 7 accurately ripped (confidence 5) [EF2B5C4C]
Track 8 accurately ripped (confidence 6) [0C3864DE]
Track 9 accurately ripped (confidence 6) [50986A1B]

All tracks accurately ripped

End of status report

[CUETools log; Date: 27.06.2019 23:25:23; Version: 2.1.4]
[CTDB TOCID: yPdN7esCk13HRdliXGSy19QiW.s-] found.
Track | CTDB Status
1 | (22/22) Accurately ripped
2 | (22/22) Accurately ripped
3 | (22/22) Accurately ripped
4 | (22/22) Accurately ripped
5 | (22/22) Accurately ripped
6 | (22/22) Accurately ripped
7 | (22/22) Accurately ripped
8 | (22/22) Accurately ripped
9 | (22/22) Accurately ripped
[AccurateRip ID: 0011a180-00853e8b-660ca609] found.
Track [ CRC | V2 ] Status
01 [ec5eb0e9|dcc45086] (04+02/10) Accurately ripped
02 [2b532d8b|709e0642] (05+02/11) Accurately ripped
03 [15df1e7d|88837970] (05+02/11) Accurately ripped
04 [1974d4a2|ee4d84ed] (05+02/11) Accurately ripped
05 [b10c808a|29f23c8a] (04+02/10) Accurately ripped
06 [7458a30e|1b838b13] (05+02/11) Accurately ripped
07 [ef2b5c4c|a0c36bb3] (04+02/10) Accurately ripped
08 [0c3864de|1d1503cb] (05+02/11) Accurately ripped
09 [50986a1b|c7866d6b] (05+02/11) Accurately ripped
Offsetted by -661:
01 [29216f57] (00/10) No match (V2 was not tested)
02 [fbf944ea] (00/11) No match (V2 was not tested)
03 [6c0923fa] (00/11) No match (V2 was not tested)
04 [0a3092ae] (00/11) No match (V2 was not tested)
05 [0c2847d8] (00/10) No match (V2 was not tested)
06 [13f98dbe] (00/11) No match (V2 was not tested)
07 [75036e69] (00/10) No match (V2 was not tested)
08 [2bec7ba4] (00/11) No match (V2 was not tested)
09 [1a9357f7] (00/11) No match (V2 was not tested)
Offsetted by -33:
01 [12af9ae4] (00/10) No match (V2 was not tested)
02 [3f5c6f45] (00/11) No match (V2 was not tested)
03 [bc11c99f] (00/11) No match (V2 was not tested)
04 [16330c1a] (00/11) No match (V2 was not tested)
05 [bedf281a] (00/10) No match (V2 was not tested)
06 [e04564b5] (00/11) No match (V2 was not tested)
07 [75f18f99] (00/10) No match (V2 was not tested)
08 [ec05cc8a] (00/11) No match (V2 was not tested)
09 [dbf3a040] (00/11) No match (V2 was not tested)

Track Peak [ CRC32 ] [W/O NULL] [ LOG ]
– 100,0 [B48C1F56] [9AFABA6A] CRC32
01 75,3 [BECFB511] [5B4320D7]
02 97,9 [F922E690] [D5A7A812]
03 94,0 [42DD1BFF] [B2FA8DB6]
04 98,6 [A946239D] [00B467BC]
05 74,7 [DB714458] [321C2E4B]
06 98,1 [432FCF8A] [D844A0A5]
07 97,8 [ECCBCE25] [AB2A9211]
08 100,0 [A5F5E5F1] [5BB20BFD]
09 98,0 [ED3E2513] [CAD592B6]

Thanks to hexonut