Subcategories

Gram Parsons With The Flying Burrito Bros - Gram Parsons Archives Vol. 1: Live At The Avalon Ballroom 1969 (2007)

Posted By: uff
Gram Parsons With The Flying Burrito Bros - Gram Parsons Archives Vol. 1: Live At The Avalon Ballroom 1969 (2007)

Gram Parsons With The Flying Burrito Bros - Gram Parsons Archives Vol. 1: Live At The Avalon Ballroom 1969 (2007)
Rock | 2cd | EAC Rip | Wv + Cue + Log | covers
Amoeba, AM0002 | rel: 2007 | 775Mb

It's very easy to underestimate the importance of Gram Parsons to American music. He never had anything close to a hit, and while he was pivotal in the creation of country-rock, and by rote, alternative country, none of his direct efforts at it (the Byrds' Sweetheart of the Rodeo, an album and a half with the Flying Burrito Brothers, his own two solo albums) stirred up any kind of mass public acceptance. Yet three decades and on past his death, Parsons' fragile version of what he called "cosmic American music" (a seamless blending of country, blues and rock) continues to make him a both a cult figure and a continuing influence on musicians traveling a similar path and synthesis in the 21st century. Parsons probably came closest to realizing his "cosmic American music" dream during his brief stay as a founding member of the Flying Burrito Brothers, and so this double-disc release, which features well-recorded live sets from 1969 of the original Burritos lineup (Parsons, Chris Hillman, Sneaky Pete Kleinow, Chris Ethridge, and Mike Clarke) opening two shows for the Grateful Dead at the Avalon Ballroom in San Francisco on April 4 and April 6, is a true archival treasure, perhaps doubly so because it comes direct from the famed Grateful Dead tape vault. The real surprise here is the sound quality, which is excellent, and it's easy to hear Parsons and Hillman work their sometimes unsteady (but endearingly unsteady) vocal harmonies while all of the band instrumentation is mixed back a bit (but not alarmingly so, every nuance is audible). The band sounds limber and fresh, and the versions here of "Close Up the Honky Tonks," Little Richard's "Lucille" (one version each night, with the April 6 rendition being a tad faster), and Parsons and Hillman's compositional masterpiece, "Sin City" (again, two versions, one each night), are vintage Burritos in full glorious flight. There are also inspired covers of Hank Williams' "You Win Again" and George Jones' "She Once Lived Here," which gains a kind of fragile emotional power when filtered through Parsons' frail, halting vocal approach. Also included in the set are two demo recordings, a delicate harmony workout on Phil Everly's "When Will I Be Loved" from 1967, and a gorgeous solo piano version of "Thousand Dollar Wedding" taped in 1969, and which is, hands down, the emotional highlight of this collection. Fans of Parsons and the Flying Burrito Brothers are going to love Gram Parsons Archive, Vol.1 and the solid sound quality of these recordings will no doubt surprise and delight. A real find. ~Allmusic

Track listing
cd1:
01. Close up the Honky Tonks (2:38)
02. Dark End of the Street (3:58)
03. Medley: Undo the Right/Somebody's Back in Town (3:16)
04. She Once Lived Here (3:54)
05. We've Got To Get Ourselves Together (3:31)
06. Lucille (2:39)
07. Hot Burrito #1 (3:40)
08. Hot Burrito #2 (4:06)
09. Long Black Limousine (3:39)
10. Mental Revenge (3:08)
11. Sin City (4:03)
12. Thousand Dollar Wedding [home recording in LA, 1969] (4:25)
13. When Will I Be Loved [home recording in NYC, 1967] (2:16)

cd2:
01. Medley: Undo the Right/Somebody's Back in Town (3:14)
02. She Once Lived Here (4:06)
03. Mental Revenge (3:13)
04. We've Got To Get Ourselves Together (3:43)
05. Lucille (2:39)
06. Sin City (4:08)
07. You Win Again (3:07)
08. Hot Burrito #1 (3:53)
09. Hot Burrito #2 (4:00)
10. You're Still On My Mind (2:35)
11. Train Song (3:43)
12. Long Black Limousine (3:16)
13. Dream Baby (How Long Must I Dream) (3:19)
14. Do Right Woman (5:02)


Exact Audio Copy V0.99 prebeta 5 from 4. May 2009

EAC extraction logfile from 14. October 2010, 12:36

Gram Parsons with the Flying Burrito Brothers / Avalon Ballroom 1969 [1]

Used drive : ATAPI iHAS124 Y Adapter: 2 ID: 0

Read mode : Secure
Utilize accurate stream : Yes
Defeat audio cache : Yes
Make use of C2 pointers : No

Read offset correction : 48
Overread into Lead-In and Lead-Out : No
Fill up missing offset samples with silence : Yes
Delete leading and trailing silent blocks : No
Null samples used in CRC calculations : Yes
Used interface : Native Win32 interface for Win NT & 2000

Used output format : Internal WAV Routines
Sample format : 44.100 Hz; 16 Bit; Stereo


TOC of the extracted CD

Track | Start | Length | Start sector | End sector
––––––––––––––––––––––––––––-
1 | 0:00.00 | 2:38.47 | 0 | 11896
2 | 2:38.47 | 4:05.57 | 11897 | 30328
3 | 6:44.29 | 3:21.00 | 30329 | 45403
4 | 10:05.29 | 4:00.03 | 45404 | 63406
5 | 14:05.32 | 3:57.47 | 63407 | 81228
6 | 18:03.04 | 2:41.18 | 81229 | 93321
7 | 20:44.22 | 3:44.40 | 93322 | 110161
8 | 24:28.62 | 4:34.22 | 110162 | 130733
9 | 29:03.09 | 3:53.30 | 130734 | 148238
10 | 32:56.39 | 3:12.28 | 148239 | 162666
11 | 36:08.67 | 4:05.74 | 162667 | 181115
12 | 40:14.66 | 4:27.46 | 181116 | 201186
13 | 44:42.37 | 2:16.39 | 201187 | 211425


Range status and errors

Selected range

Filename C:\musjk\Gram Parsons with the Flying Burrito Brothers - Avalon Ballroom 1969 [1].wav

Peak level 98.3 %
Range quality 100.0 %
Test CRC DB96FE8E
Copy CRC DB96FE8E
Copy OK

No errors occurred


AccurateRip summary

Track 1 accurately ripped (confidence 36) [A4EDE7CF]
Track 2 accurately ripped (confidence 36) [D0827D43]
Track 3 accurately ripped (confidence 36) [55AFA167]
Track 4 accurately ripped (confidence 34) [AE5159D3]
Track 5 accurately ripped (confidence 36) [4DF35EA7]
Track 6 accurately ripped (confidence 34) [F95A3862]
Track 7 accurately ripped (confidence 36) [DB2C678D]
Track 8 accurately ripped (confidence 36) [362B42B0]
Track 9 accurately ripped (confidence 34) [7C5C93BD]
Track 10 accurately ripped (confidence 36) [ADA74999]
Track 11 accurately ripped (confidence 36) [CAF71960]
Track 12 accurately ripped (confidence 36) [43C15568]
Track 13 accurately ripped (confidence 36) [63685F7A]

All tracks accurately ripped

End of status report
–-

Exact Audio Copy V0.99 prebeta 5 from 4. May 2009

EAC extraction logfile from 14. October 2010, 13:31

Gram Parsons and the Flying Burrito Brothers / Live At The Avalon Ballroom [2 April 6, 1969]

Used drive : ATAPI iHAS124 Y Adapter: 2 ID: 0

Read mode : Secure
Utilize accurate stream : Yes
Defeat audio cache : Yes
Make use of C2 pointers : No

Read offset correction : 48
Overread into Lead-In and Lead-Out : No
Fill up missing offset samples with silence : Yes
Delete leading and trailing silent blocks : No
Null samples used in CRC calculations : Yes
Used interface : Native Win32 interface for Win NT & 2000

Used output format : Internal WAV Routines
Sample format : 44.100 Hz; 16 Bit; Stereo


TOC of the extracted CD

Track | Start | Length | Start sector | End sector
––––––––––––––––––––––––––––-
1 | 0:00.00 | 3:14.10 | 0 | 14559
2 | 3:14.10 | 4:16.20 | 14560 | 33779
3 | 7:30.30 | 3:13.50 | 33780 | 48304
4 | 10:44.05 | 3:53.37 | 48305 | 65816
5 | 14:37.42 | 2:58.05 | 65817 | 79171
6 | 17:35.47 | 4:10.17 | 79172 | 97938
7 | 21:45.64 | 3:12.25 | 97939 | 112363
8 | 24:58.14 | 3:55.68 | 112364 | 130056
9 | 28:54.07 | 4:10.20 | 130057 | 148826
10 | 33:04.27 | 2:45.28 | 148827 | 161229
11 | 35:49.55 | 3:50.30 | 161230 | 178509
12 | 39:40.10 | 3:23.45 | 178510 | 193779
13 | 43:03.55 | 3:24.29 | 193780 | 209108
14 | 46:28.09 | 5:02.08 | 209109 | 231766


Range status and errors

Selected range

Filename C:\musjk\Gram Parsons and the Flying Burrito Brothers - Live At The Avalon Ballroom [2 April 6, 1969].wav

Peak level 98.0 %
Range quality 100.0 %
Test CRC 5C8BCC8E
Copy CRC 5C8BCC8E
Copy OK

No errors occurred


AccurateRip summary

Track 1 accurately ripped (confidence 36) [4700849F]
Track 2 accurately ripped (confidence 37) [627BD930]
Track 3 accurately ripped (confidence 37) [7FDF1565]
Track 4 accurately ripped (confidence 37) [6F83D32E]
Track 5 accurately ripped (confidence 37) [B8404B3A]
Track 6 accurately ripped (confidence 37) [C98AF5B0]
Track 7 accurately ripped (confidence 37) [F2625056]
Track 8 accurately ripped (confidence 37) [4A8906E4]
Track 9 accurately ripped (confidence 37) [4875F505]
Track 10 accurately ripped (confidence 37) [63494584]
Track 11 accurately ripped (confidence 37) [C745AFE9]
Track 12 accurately ripped (confidence 37) [82AF73D3]
Track 13 accurately ripped (confidence 36) [10CF5B16]
Track 14 accurately ripped (confidence 34) [D554660E]

All tracks accurately ripped

End of status report



[CUETools log; Date: 2017. 06. 08. 9:59:53; Version: 2.1.6]
HDCD: peak extend: yes, transient filter: none, gain: -4,0dB..0,0dB
[CTDB TOCID: w6MvWFgR0Kf56.nlQ2Go4_bLSqY-] found.
Track | CTDB Status
1 | (34/34) Accurately ripped
2 | (34/34) Accurately ripped
3 | (34/34) Accurately ripped
4 | (34/34) Accurately ripped
5 | (34/34) Accurately ripped
6 | (34/34) Accurately ripped
7 | (34/34) Accurately ripped
8 | (34/34) Accurately ripped
9 | (34/34) Accurately ripped
10 | (33/34) Accurately ripped
11 | (33/34) Accurately ripped
12 | (34/34) Accurately ripped
13 | (34/34) Accurately ripped
[AccurateRip ID: 0016728f-00e2535d-af0b030d] found.
Track [ CRC | V2 ] Status
01 [a4ede7cf|9d9cb22d] (45+27/72) Accurately ripped
02 [d0827d43|c75d58b7] (45+26/71) Accurately ripped
03 [55afa167|3cb1ec31] (45+26/71) Accurately ripped
04 [ae5159d3|e68f987e] (43+26/69) Accurately ripped
05 [4df35ea7|53a0aa51] (45+26/71) Accurately ripped
06 [f95a3862|a7d370af] (42+26/68) Accurately ripped
07 [db2c678d|f7f9369d] (45+26/71) Accurately ripped
08 [362b42b0|9af154d2] (45+26/71) Accurately ripped
09 [7c5c93bd|ae147055] (43+26/69) Accurately ripped
10 [ada74999|be643927] (45+25/70) Accurately ripped
11 [caf71960|d662b1db] (45+25/70) Accurately ripped
12 [43c15568|be36595a] (45+24/69) Accurately ripped
13 [63685f7a|6b8a6a42] (45+25/70) Accurately ripped

Track Peak [ CRC32 ] [W/O NULL] [ LOG ]
– 98,3 [DB96FE8E] [AA87E7AD] CRC32
01 97,8 [48171A9D] [258351AB]
02 98,3 [B9F734F4] [2484C2F7]
03 97,2 [F34DF197] [158B999E]
04 97,4 [B324A5ED] [CA9A8B37]
05 98,2 [EF0B157D] [5F26D73F]
06 98,2 [3D75D0CF] [1EBD244E]
07 97,5 [4265797F] [85A21FF9]
08 97,5 [5DDDD38C] [91BD5AEA]
09 97,0 [56CA6B46] [46E51362]
10 97,0 [FF615EC4] [6650C0F1]
11 93,5 [452A4E67] [105531D2]
12 90,4 [99F6EE7D] [94EE7CC8]
13 83,5 [88306694] [1764F54B]

–-
[CUETools log; Date: 2017. 06. 08. 10:01:24; Version: 2.1.6]
HDCD: peak extend: yes, transient filter: none, gain: -4,0dB..0,0dB
[CTDB TOCID: I.BcrcejsWowhIJcMKQaKlJ64Vc-] found.
Track | CTDB Status
1 | (34/34) Accurately ripped
2 | (34/34) Accurately ripped
3 | (34/34) Accurately ripped
4 | (34/34) Accurately ripped
5 | (34/34) Accurately ripped
6 | (34/34) Accurately ripped
7 | (34/34) Accurately ripped
8 | (34/34) Accurately ripped
9 | (34/34) Accurately ripped
10 | (34/34) Accurately ripped
11 | (34/34) Accurately ripped
12 | (34/34) Accurately ripped
13 | (32/34) Accurately ripped
14 | (34/34) Accurately ripped
[AccurateRip ID: 001a0501-0115dc5f-ca0c120e] found.
Track [ CRC | V2 ] Status
01 [4700849f|c9edea9f] (46+24/70) Accurately ripped
02 [627bd930|7154403f] (47+24/71) Accurately ripped
03 [7fdf1565|813d3906] (47+24/71) Accurately ripped
04 [6f83d32e|4832cc13] (47+24/71) Accurately ripped
05 [b8404b3a|6b0bddfa] (47+24/71) Accurately ripped
06 [c98af5b0|75728dc5] (47+24/71) Accurately ripped
07 [f2625056|1ba492e9] (47+24/71) Accurately ripped
08 [4a8906e4|81b233be] (47+24/71) Accurately ripped
09 [4875f505|3f7a1cfb] (47+24/71) Accurately ripped
10 [63494584|459fc3c0] (47+24/71) Accurately ripped
11 [c745afe9|3910e531] (47+24/71) Accurately ripped
12 [82af73d3|64983e6c] (47+24/71) Accurately ripped
13 [10cf5b16|946f2046] (46+24/70) Accurately ripped
14 [d554660e|e65a86c1] (44+25/71) Accurately ripped

Track Peak [ CRC32 ] [W/O NULL] [ LOG ]
– 98,0 [5C8BCC8E] [4CAF3893] CRC32
01 96,1 [968E2806] [3C316A5A]
02 97,0 [025F6C15] [7DC3B713]
03 96,8 [98002490] [76505951]
04 98,0 [942AB0BB] [5B428B37]
05 97,1 [C9E6375C] [48E8EEB4]
06 95,8 [AE2CA402] [E2FF4B37]
07 97,4 [08751807] [2D9DC794]
08 94,3 [702DD10B] [B918851D]
09 97,2 [4BA42F18] [06C0A72F]
10 93,3 [65D93565] [E6925A1F]
11 97,4 [1FF7048D] [6491FA02]
12 95,8 [45C7A373] [B4A74BB5]
13 95,2 [56936137] [4EFAEC46]
14 93,1 [3FE5F4B2] [5E7F96A6]


Original uploader unknown