Subcategories

Gram Parsons ‎– Sacred Hearts & Fallen Angels: The Gram Parsons Anthology (2001)

Posted By: uff
Gram Parsons ‎– Sacred Hearts & Fallen Angels: The Gram Parsons Anthology (2001)

Gram Parsons - Sacred Hearts & Fallen Angels: The Gram Parsons Anthology (2001)
Country Rock | 2cd | EAC Rip | Flac + Cue + Log | covers
Rhino, R2 76780 | rel: 2001 | 1080Mb

Gram Parsons' legend is so great that it's easy for the neophyte to be skeptical about his music, wondering if it really is deserving of such effusive praise. Simply put, it is, and if you question the veracity of that statement, turn to Rhino's peerless double-disc set, Sacred Hearts and Fallen Angels: The Gram Parsons Anthology. This is the first truly comprehensive overview of Parsons' work, running from the International Submarine Band, through the Byrds, to the Flying Burrito Brothers and his two solo albums, scattering appropriate rarities or non-LP tracks along the way. This is no small feat, since it depends on extensive cross-licensing between record labels, plus concentration from the compilers, who won't allow personal biases to get in the way of telling the story. Miraculously, this happens, and the result is a lean, yet thorough, utterly addictive set that summarizes the brilliance of Gram Parsons, capturing his magnificent songwriting abilities and how he made country sound like rock & roll, while giving rock a sense of country's history. It's possible to complain about the handful of omissions – "Break My Mind" is one of the greatest recordings he did with the Byrds, the version of "Do You Know How It Feels" is better with the Burritos, the barroom anthems of his solo records ("Cry One More Time," "Big Mouth Blues," "I Can't Dance," "Cash on the Barrellhead") gave the weepers context – but this still hits every major point. After all, counting the early version of "Do You Know," only two songs are missing from The Gilded Palace of Sin and only four songs are missing from the two-fer of GP/Grievous Angel, plus this has the best of the ISB, Byrds, and songs that didn't make the solo album. So, even if there may be a personal favorite or two missing, nothing major is missing, which means this is a perfect, irresistible summation of Parsons' career, containing every great moment from all of his bands. His genius has never seemed purer than it does here, since it conveys the true scope of his talents and his career. If you are a fan of Parsons, this isn't necessary, even if it is an excellent listen (there's only one unreleased track, the ISB's "Knee Deep in the Blues"). If you haven't fallen in love with him, skip every other disc – this is what you need. Once you hear it, there's no way that you won't become a life-long fan. ~Allmusic

Track listing
cd1:
01. The International Submarine Band / Blue Eyes (2:48)
02. The International Submarine Band / Luxury Liner (2:53)
03. The International Submarine Band / Do You Know How It Feels to Be Lonesome? (3:33)
04. The International Submarine Band / I Must Be Somebody Else You've Known (2:16)
05. The International Submarine Band / Miller's Cave (2:46)
06. The International Submarine Band / Knee Deep in the Blues (1:54)
07. The Byrds / Hickory Wind (3:33)
08. The Byrds / You're Still on My Mind (2:25)
09. The Byrds / The Christian Life (2:30)
10. The Byrds / You Don't Miss Your Water (3:50)
11. The Byrds / One Hundred Years From Now (2:57)
12. The Flying Burrito Brothers / Christine's Tune (Devil in Disguise) (3:03)
13. The Flying Burrito Brothers / Sin City (4:10)
14. The Flying Burrito Brothers / Do Right Woman (3:56)
15. The Flying Burrito Brothers / Dark End of the Street (3:57)
16. The Flying Burrito Brothers / Wheels (3:04)
17. The Flying Burrito Brothers / Juanita (2:30)
18. The Flying Burrito Brothers / Hot Burrito #1 (3:38)
19. The Flying Burrito Brothers / Hot Burrito #2 (3:17)
20. The Flying Burrito Brothers / High Fashion Queen (2:08)
21. The Flying Burrito Brothers / Older Guys (2:28)
22. The Flying Burrito Brothers / Cody, Cody (2:45)
23. The Flying Burrito Brothers / Wild Horses (6:22)
24. The Flying Burrito Brothers / Sing Me Back Home (4:31)

cd2:
01. The Flying Burrito Brothers / To Love Somebody (3:20)
02. Still Feeling Blue (2:41)
03. We'll Sweep Out the Ashes in the Morning (3:12)
04. A Song for You (4:57)
05. Streets of Baltimore (2:53)
06. She (4:58)
07. The New Soft Shoe (3:53)
08. Kiss the Children (2:56)
09. How Much I've Lied (2:27)
10. Drug Store Truck Drivin' Man (4:39)
11. That's All It Took (2:51)
12. California Cotton Fields (2:43)
13. Return of the Grievous Angel (remix) (3:57)
14. Hearts on Fire (3:49)
15. Brass Buttons (3:27)
16. $1000 Wedding (5:01)
17. Love Hurts (3:39)
18. Ooh Las Vegas (3:30)
19. In My Hour of Darkness (3:46)
20. Brand New Heartache (2:25)
21. Sleepless Nights (3:24)
22. The Angels Rejoiced Last Night (3:35)


Exact Audio Copy V0.99 prebeta 5 from 4. May 2009

EAC extraction logfile from 10. May 2010, 23:06

Gram Parsons / Sacred Hearts & Fallen Angels: The Gram Parsons Anthology

Used drive : ATAPI DVD A DH20A4P Adapter: 5 ID: 0

Read mode : Secure
Utilize accurate stream : Yes
Defeat audio cache : Yes
Make use of C2 pointers : No

Read offset correction : 6
Overread into Lead-In and Lead-Out : No
Fill up missing offset samples with silence : Yes
Delete leading and trailing silent blocks : No
Null samples used in CRC calculations : Yes
Used interface : Native Win32 interface for Win NT & 2000

Used output format : Internal WAV Routines
Sample format : 44.100 Hz; 16 Bit; Stereo


TOC of the extracted CD

Track | Start | Length | Start sector | End sector
––––––––––––––––––––––––––––-
1 | 0:00.00 | 2:48.53 | 0 | 12652
2 | 2:48.53 | 2:54.53 | 12653 | 25755
3 | 5:43.31 | 3:34.42 | 25756 | 41847
4 | 9:17.73 | 2:17.43 | 41848 | 52165
5 | 11:35.41 | 2:48.16 | 52166 | 64781
6 | 14:23.57 | 1:57.30 | 64782 | 73586
7 | 16:21.12 | 3:33.31 | 73587 | 89592
8 | 19:54.43 | 2:26.62 | 89593 | 100604
9 | 22:21.30 | 2:31.22 | 100605 | 111951
10 | 24:52.52 | 3:52.12 | 111952 | 129363
11 | 28:44.64 | 2:58.56 | 129364 | 142769
12 | 31:43.45 | 3:04.72 | 142770 | 156641
13 | 34:48.42 | 4:11.57 | 156642 | 175523
14 | 39:00.24 | 3:56.54 | 175524 | 193277
15 | 42:57.03 | 3:59.22 | 193278 | 211224
16 | 46:56.25 | 3:04.26 | 211225 | 225050
17 | 50:00.51 | 2:31.64 | 225051 | 236439
18 | 52:32.40 | 3:41.06 | 236440 | 253020
19 | 56:13.46 | 3:19.17 | 253021 | 267962
20 | 59:32.63 | 2:08.63 | 267963 | 277625
21 | 61:41.51 | 2:30.55 | 277626 | 288930
22 | 64:12.31 | 2:46.45 | 288931 | 301425
23 | 66:59.01 | 6:24.13 | 301426 | 330238
24 | 73:23.14 | 4:31.08 | 330239 | 350571


Range status and errors

Selected range

Filename D:\Gram Parsons - Sacred Hearts & Fallen Angels The Gram Parsons Anthology.wav

Peak level 99.9 %
Range quality 100.0 %
Test CRC 3A59574F
Copy CRC 3A59574F
Copy OK

No errors occurred

End of status report
–-

Exact Audio Copy V0.99 prebeta 5 from 4. May 2009

EAC extraction logfile from 10. May 2010, 23:31

Gram Parsons / Sacred Hearts & Fallen Angels: The Gram Parsons Anthology

Used drive : ATAPI DVD A DH20A4P Adapter: 5 ID: 0

Read mode : Secure
Utilize accurate stream : Yes
Defeat audio cache : Yes
Make use of C2 pointers : No

Read offset correction : 6
Overread into Lead-In and Lead-Out : No
Fill up missing offset samples with silence : Yes
Delete leading and trailing silent blocks : No
Null samples used in CRC calculations : Yes
Used interface : Native Win32 interface for Win NT & 2000

Used output format : Internal WAV Routines
Sample format : 44.100 Hz; 16 Bit; Stereo


TOC of the extracted CD

Track | Start | Length | Start sector | End sector
––––––––––––––––––––––––––––-
1 | 0:00.32 | 3:21.48 | 32 | 15154
2 | 3:22.05 | 2:41.50 | 15155 | 27279
3 | 6:03.55 | 3:13.37 | 27280 | 41791
4 | 9:17.17 | 4:58.40 | 41792 | 64181
5 | 14:15.57 | 2:53.40 | 64182 | 77196
6 | 17:09.22 | 4:58.35 | 77197 | 99581
7 | 22:07.57 | 3:53.65 | 99582 | 117121
8 | 26:01.47 | 2:58.28 | 117122 | 130499
9 | 29:00.00 | 2:28.55 | 130500 | 141654
10 | 31:28.55 | 4:39.17 | 141655 | 162596
11 | 36:07.72 | 2:51.38 | 162597 | 175459
12 | 38:59.35 | 2:45.72 | 175460 | 187906
13 | 41:45.32 | 3:58.48 | 187907 | 205804
14 | 45:44.05 | 3:49.72 | 205805 | 223051
15 | 49:34.02 | 3:29.18 | 223052 | 238744
16 | 53:03.20 | 5:03.10 | 238745 | 261479
17 | 58:06.30 | 3:41.40 | 261480 | 278094
18 | 61:47.70 | 3:31.62 | 278095 | 293981
19 | 65:19.57 | 3:47.48 | 293982 | 311054
20 | 69:07.30 | 2:28.02 | 311055 | 322156
21 | 71:35.32 | 3:25.38 | 322157 | 337569
22 | 75:00.70 | 3:35.72 | 337570 | 353766


Range status and errors

Selected range

Filename D:\Gram Parsons - Sacred Hearts & Fallen Angels The Gram Parsons Anthology.wav

Peak level 97.2 %
Range quality 100.0 %
Test CRC DDFEA48F
Copy CRC DDFEA48F
Copy OK

No errors occurred

End of status report



[CUETools log; Date: 2017. 05. 11. 9:04:17; Version: 2.1.6]
[CTDB TOCID: eqm2IVPJPsXSHcFqSwzzRTF3rDk-] found.
Track | CTDB Status
1 | (57/58) Accurately ripped
2 | (56/58) Accurately ripped
3 | (57/58) Accurately ripped
4 | (57/58) Accurately ripped
5 | (57/58) Accurately ripped
6 | (57/58) Accurately ripped
7 | (56/58) Accurately ripped
8 | (57/58) Accurately ripped
9 | (57/58) Accurately ripped
10 | (57/58) Accurately ripped
11 | (57/58) Accurately ripped
12 | (57/58) Accurately ripped
13 | (57/58) Accurately ripped
14 | (56/58) Accurately ripped
15 | (57/58) Accurately ripped
16 | (56/58) Accurately ripped
17 | (57/58) Accurately ripped
18 | (57/58) Accurately ripped
19 | (57/58) Accurately ripped
20 | (57/58) Accurately ripped
21 | (56/58) Accurately ripped
22 | (56/58) Accurately ripped
23 | (55/58) Accurately ripped
24 | (54/58) Accurately ripped
[AccurateRip ID: 003ec276-044cd03f-60124218] found.
Track [ CRC | V2 ] Status
01 [d82eb14b|1b29b226] (014+007/106) Accurately ripped
02 [3918dda0|300474fa] (013+007/105) Accurately ripped
03 [14eb8d94|c1ab4439] (013+007/103) Accurately ripped
04 [dce5e87a|793370d3] (013+007/104) Accurately ripped
05 [e0ab56c2|5ae5d358] (013+007/104) Accurately ripped
06 [5d8a1009|8df52aca] (012+007/103) Accurately ripped
07 [1d8c3eb5|c5e8a395] (015+007/103) Accurately ripped
08 [903ef8de|e85bca44] (012+007/102) Accurately ripped
09 [c4483420|fb0f490d] (013+007/102) Accurately ripped
10 [11b53905|5dbbf333] (012+007/100) Accurately ripped
11 [ac62ff1d|6245e614] (013+007/099) Accurately ripped
12 [b4b017e8|6d812757] (012+007/098) Accurately ripped
13 [601ffcb6|340ff3c0] (012+008/099) Accurately ripped
14 [00554631|3183b41e] (013+007/099) Accurately ripped
15 [f9831fd5|ffc3a261] (012+007/097) Accurately ripped
16 [59eb9ea4|8b4f4425] (039+039/097) Accurately ripped
17 [6741b268|454f2ad9] (012+007/096) Accurately ripped
18 [5c76cefd|2aa9602d] (013+007/095) Accurately ripped
19 [64c0fffe|28c88452] (013+007/096) Accurately ripped
20 [492fc952|a58c5d22] (013+007/099) Accurately ripped
21 [4eebd922|106a09f5] (011+007/097) Accurately ripped
22 [d8285cef|5812de77] (012+007/093) Accurately ripped
23 [899cbc04|a79199ec] (012+007/096) Accurately ripped
24 [e1d5ca0d|8089a144] (032+034/085) Accurately ripped
Offsetted by -10:
01 [2c71d123] (000/106) No match
02 [b3fba94a] (000/105) No match
03 [8cf158da] (000/103) No match
04 [314e8ffa] (000/104) No match
05 [16c5b2a8] (000/104) No match
06 [2984a91b] (000/103) No match
07 [5fb846c5] (000/103) No match
08 [f971fc32] (000/102) No match
09 [fac1618e] (000/102) No match
10 [0985f44b] (000/100) No match
11 [fa3bd29f] (000/099) No match
12 [783dc152] (000/098) No match
13 [556b1d0e] (000/099) No match
14 [3e10da6b] (000/099) No match
15 [2fd80ea7] (000/097) No match
16 [b8634720] (012/097) Accurately ripped
17 [090bd90a] (000/096) No match
18 [64d88a11] (000/095) No match
19 [7b6e0618] (000/096) No match
20 [95b46b58] (000/099) No match
21 [51f53df2] (000/097) No match
22 [e9cec2fb] (000/093) No match
23 [e127905a] (000/096) No match
24 [a7920c75] (012/085) Accurately ripped
Offsetted by 10:
01 [83eb9173] (045/106) Accurately ripped
02 [be3611f6] (046/105) Accurately ripped
03 [9ce5c24e] (044/103) Accurately ripped
04 [887d40fa] (044/104) Accurately ripped
05 [aa90fadc] (044/104) Accurately ripped
06 [918f76f7] (044/103) Accurately ripped
07 [db6036a5] (042/103) Accurately ripped
08 [270bf58a] (043/102) Accurately ripped
09 [8dcf06b2] (042/102) Accurately ripped
10 [19e47dbf] (041/100) Accurately ripped
11 [5e8a2b9b] (040/099) Accurately ripped
12 [f1226e7e] (040/098) Accurately ripped
13 [6ad4dc5e] (039/099) Accurately ripped
14 [9a954a30] (039/099) Accurately ripped
15 [7137feca] (039/097) Accurately ripped
16 [fb73f628] (000/097) No match
17 [c5778bc6] (039/096) Accurately ripped
18 [541513e9] (037/095) Accurately ripped
19 [4e13f9e4] (040/096) Accurately ripped
20 [fcab274c] (040/099) Accurately ripped
21 [4be27452] (039/097) Accurately ripped
22 [c681f6e3] (038/093) Accurately ripped
23 [3211e7ae] (040/096) Accurately ripped
24 [1c1987a5] (000/085) No match

Track Peak [ CRC32 ] [W/O NULL] [ LOG ]
– 99,9 [3A59574F] [1665F294] CRC32
01 97,2 [A05C59DA] [5E6AC5E7]
02 82,1 [79D19CC8] [399D4407]
03 85,8 [D282C92B] [66FEE0E9]
04 86,3 [D18C444B] [B8F33CE8]
05 94,0 [248AC7E5] [8CCB0E31]
06 97,2 [750AE25B] [DED05F5D]
07 91,6 [337C36E2] [F77C115E]
08 86,6 [DDB28D6A] [4150EF13]
09 88,7 [C0296169] [6D5F084E]
10 95,9 [EB8E8C0D] [53FC8D68]
11 97,2 [BACF0856] [A176568A]
12 99,9 [B4F0AE25] [364927D0]
13 76,7 [29C137A9] [BBF7343F]
14 97,2 [2D1AC5D4] [CDC6CD71]
15 97,2 [D2FD363B] [C6BF9A47]
16 92,7 [C2992ED2] [6669805D]
17 78,7 [EEB86210] [8B4C9602]
18 87,5 [537AE58D] [D9B386B9]
19 80,7 [F63BEDDE] [E6A0D13F]
20 97,2 [7E9FD5C7] [89C47AB3]
21 97,2 [5379A5DB] [66E86DD3]
22 97,2 [6F96710C] [170BA88B]
23 97,2 [466003AD] [AA442DB2]
24 94,6 [249EA330] [A02F9BBA]

–––

[CUETools log; Date: 2017. 05. 11. 8:32:26; Version: 2.1.6]
Pregap length 00:00:32.
[CTDB TOCID: rtvm47vjb9sGR.kK4rz18g7A5Lg-] found.
Track | CTDB Status
1 | (32/33) Accurately ripped
2 | (32/33) Accurately ripped
3 | (32/33) Accurately ripped
4 | (31/33) Accurately ripped
5 | (31/33) Accurately ripped
6 | (32/33) Accurately ripped
7 | (32/33) Accurately ripped
8 | (32/33) Accurately ripped
9 | (31/33) Accurately ripped
10 | (32/33) Accurately ripped
11 | (32/33) Accurately ripped
12 | (31/33) Accurately ripped
13 | (31/33) Accurately ripped
14 | (32/33) Accurately ripped
15 | (31/33) Accurately ripped
16 | (32/33) Accurately ripped
17 | (32/33) Accurately ripped
18 | (32/33) Accurately ripped
19 | (32/33) Accurately ripped
20 | (32/33) Accurately ripped
21 | (31/33) Accurately ripped
22 | (31/33) Accurately ripped
[AccurateRip ID: 003e0b79-03e3c400-53126c16] found.
Track [ CRC | V2 ] Status
01 [c4c632b0|dd37978f] (053+045/098) Accurately ripped
02 [01639768|429dd683] (056+045/101) Accurately ripped
03 [beb6c05a|cff9a4f2] (057+043/100) Accurately ripped
04 [a3d6bef0|b00ff201] (056+043/099) Accurately ripped
05 [0ce28494|ff1f2c68] (057+044/103) Accurately ripped
06 [a4d41c57|f1934967] (057+044/101) Accurately ripped
07 [6ef0fa52|46ff5fe2] (056+044/100) Accurately ripped
08 [91e85e0d|d9430d8d] (055+043/100) Accurately ripped
09 [c9a25198|fb6860f5] (055+043/098) Accurately ripped
10 [e4fea820|680608a1] (056+043/099) Accurately ripped
11 [4a44adfd|c995d3c7] (057+043/100) Accurately ripped
12 [7c5c142d|06de59bc] (055+043/098) Accurately ripped
13 [d6740eb3|e812568c] (055+044/099) Accurately ripped
14 [e9f9c670|6f9f3039] (055+040/095) Accurately ripped
15 [4476aceb|6fde5ae3] (055+042/097) Accurately ripped
16 [6e01420e|1b83baa5] (054+044/098) Accurately ripped
17 [104ffec6|1ba0aa42] (056+043/099) Accurately ripped
18 [56d606e8|c444a8f2] (055+045/100) Accurately ripped
19 [174d35a8|5ea9a07f] (055+040/095) Accurately ripped
20 [b8381e51|fd927b19] (055+041/096) Accurately ripped
21 [58521f5f|f8884d33] (053+039/092) Accurately ripped
22 [e3153d81|2ff8e77a] (053+039/092) Accurately ripped

Track Peak [ CRC32 ] [W/O NULL] [ LOG ]
– 97,2 [DDFEA48F] [AEF0DD17] CRC32
01 94,6 [24E09ED7] [307C9CE1]
02 88,1 [876E0239] [3AF7EA82]
03 81,3 [7A062E9F] [014C6989]
04 82,8 [68CEC4E9] [F354A083]
05 83,6 [CE2882A4] [C195FC6B]
06 94,6 [2F307AEB] [D51DD475]
07 66,8 [E1982771] [7839C278]
08 81,3 [FF20F3C0] [D75BC231]
09 82,9 [0EFEB11F] [9770AFAA]
10 87,3 [3965848B] [8BDEFE50]
11 94,6 [D47F6FF8] [7148CAE4]
12 94,6 [D4F099C3] [2023B190]
13 87,9 [A02243E9] [53BFCD70]
14 97,2 [8F044F22] [701F9855]
15 76,8 [B533ADE1] [FEAB45F5]
16 96,0 [09177197] [9F30195D]
17 95,4 [AF6C710A] [2DC56872]
18 97,2 [585C7D85] [6D9A4A44]
19 97,2 [4C005EDB] [953F4CD0]
20 83,5 [D50A452B] [1EE09117]
21 96,2 [59E52CD2] [29B4874C]
22 97,2 [3049D481] [424445D2]


Original uploader unknown