Tags
Language
Tags

Gravy Train - Gravy Train (1970) [Reissue 2005]

Posted By: gribovar
Gravy Train - Gravy Train (1970) [Reissue 2005]

Gravy Train - Gravy Train (1970) [Reissue 2005]
EAC Rip | WavPack (image+.cue+log) - 313 MB | MP3 CBR 320 kbps (LAME 3.93) - 111 MB | Covers - 121 MB
Genre: Heavy Progressive Rock | RAR 3% Rec. | Label: Repertoire Records (REPUK 1067)

Jethro Tull and Comus had a baby, and they named it Gravy Train. That's not strictly accurate, of course, but as the band's eponymous debut opens with the fluid changes of "The New One," it's not too far of a reach, either. Richly harmonic, daringly jam-laden, and peppered with guitar roars that simply defy comparison, Gravy Train is the sound of the British underground at its most joyously liberated peak - a time when a bunch of apparent freaks could simply go into a major recording studio and let rip. Except Gravy Train's concept of "letting rip" has more in common with a symphony orchestra than the Edgar Broughton Band. Without, of course, the orchestra. But there's a moment in the midst of "Think of Life" that cannot help but put one in mind of later Deep Purple, as the flute and guitar battle for supremacy, while the blues workout "Coast Road" is as breathtaking as any of that genre's better-feted exponents. If Gravy Train has any faults whatsoever, the fascination with peculiar vocal effects can grow a little wearing, especially as frontman Norman Barrett already appears to have a fabulous range of his own - "Dedication to Sid," in particular, glories in such trickery, although the heartbeat bassline that runs through the number is so hypnotic that it's easy to forget everything else that's going on. In fact, Gravy Train is littered with moments like that, an album of so many surprises that even when you think you know it, you can still find something else you'd never noticed. And it all adds up to a genuine minor classic.

Tracklist:
01. The New One
02. Dedication To Sid
03. Coast Road
04. Enterprise
05. Think Of Life
06. Earl Of Pocket Nook

Total time: 47:09

Exact Audio Copy V1.0 beta 3 from 29. August 2011

EAC extraction logfile from 28. December 2012, 6:57

Gravy Train / Gravy Train

Used drive : HL-DT-STBDDVDRW GBC-H20N Adapter: 1 ID: 0

Read mode : Secure
Utilize accurate stream : Yes
Defeat audio cache : Yes
Make use of C2 pointers : No

Read offset correction : 667
Overread into Lead-In and Lead-Out : No
Fill up missing offset samples with silence : Yes
Delete leading and trailing silent blocks : No
Null samples used in CRC calculations : Yes
Used interface : Native Win32 interface for Win NT & 2000

Used output format : User Defined Encoder
Selected bitrate : 1024 kBit/s
Quality : High
Add ID3 tag : No
Command line compressor : C:\Program Files\Exact Audio Copy\wavpack.exe
Additional command line options : -hm %source% %dest%


TOC of the extracted CD

Track | Start | Length | Start sector | End sector
––––––––––––––––––––––––––––-
1 | 0:00.00 | 5:13.07 | 0 | 23481
2 | 5:13.07 | 7:22.63 | 23482 | 56694
3 | 12:35.70 | 6:47.55 | 56695 | 87274
4 | 19:23.50 | 6:21.67 | 87275 | 115916
5 | 25:45.42 | 5:08.66 | 115917 | 139082
6 | 30:54.33 | 16:14.74 | 139083 | 212206


Range status and errors

Selected range

Filename C:\Users\ProgDog\Music\ZALIVKI\Single albums\Gravy Train\Gravy Train - Gravy Train.wav

Peak level 98.8 %
Extraction speed 5.9 X
Range quality 100.0 %
Test CRC B39C3CF1
Copy CRC B39C3CF1
Copy OK

No errors occurred


AccurateRip summary

Track 1 accurately ripped (confidence 3) [56B1E829] (AR v1)
Track 2 accurately ripped (confidence 3) [4592A3D0] (AR v1)
Track 3 accurately ripped (confidence 3) [F08DFE61] (AR v1)
Track 4 accurately ripped (confidence 3) [B1851949] (AR v1)
Track 5 accurately ripped (confidence 3) [9E403043] (AR v1)
Track 6 accurately ripped (confidence 3) [1FE41E27] (AR v1)

All tracks accurately ripped

End of status report

–– CUETools DB Plugin V2.1.3

[CTDB TOCID: l7fbVEtMzIrqZPyEJdIEVop9CkU-] found, Submit result: l7fbVEtMzIrqZPyEJdIEVop9CkU- has been confirmed
[cfff6203] (3/3) Accurately ripped


==== Log checksum A5492F6B153FDC786A33EE7870BFC68781421F726D713F8FFD187E26DCF0FC39 ====

[CUETools log; Date: 02.08.2020 14:06:29; Version: 2.1.4]
[CTDB TOCID: l7fbVEtMzIrqZPyEJdIEVop9CkU-] found.
Track | CTDB Status
1 | (33/33) Accurately ripped
2 | (33/33) Accurately ripped
3 | (33/33) Accurately ripped
4 | (33/33) Accurately ripped
5 | (33/33) Accurately ripped
6 | (33/33) Accurately ripped
[AccurateRip ID: 0009af23-0034e1d2-500b0d06] found.
Track [ CRC | V2 ] Status
01 [56b1e829|2b8e36e8] (04+07/25) Accurately ripped
02 [4592a3d0|68a6a94d] (04+07/25) Accurately ripped
03 [f08dfe61|e2980605] (04+07/25) Accurately ripped
04 [b1851949|06dfa33e] (04+07/25) Accurately ripped
05 [9e403043|b0f8dbbb] (04+07/25) Accurately ripped
06 [1fe41e27|c5fc15f9] (04+07/25) Accurately ripped
Offsetted by -36:
01 [964e4b39] (00/25) No match (V2 was not tested)
02 [4639ee10] (00/25) No match (V2 was not tested)
03 [70bd3ee5] (00/25) No match (V2 was not tested)
04 [44364219] (00/25) No match (V2 was not tested)
05 [006a3eb3] (00/25) No match (V2 was not tested)
06 [88ed37e7] (00/25) No match (V2 was not tested)

Track Peak [ CRC32 ] [W/O NULL] [ LOG ]
– 98,8 [B39C3CF1] [2ED5712B] CRC32
01 98,8 [F63BFD08] [6EB20D2E]
02 98,8 [FA3F19A6] [1813576D]
03 98,8 [C59C6C62] [1BF71548]
04 98,8 [AACE938D] [EF9ADA53]
05 98,8 [6ED657BC] [812ED1DC]
06 98,8 [BD84E906] [5E999F31]

Thanks to arizonadream