Subcategories
Tags
Language
Tags

Great White - Latest & Greatest (2000)

Posted By: popsakov
Great White - Latest & Greatest (2000)

Great White - Latest & Greatest (2000)
EAC Rip | FLAC (Img) + Cue + Log ~ 504 Mb | MP3 CBR320 ~ 181 Mb
Full Scans | 01:03:47 | RAR 5% Recovery
Hard Rock | Portrait / Columbia #498801 2

Latest & Greatest is an album released by the American hard rock band Great White in 2000. It includes re-recordings of many of the bands' hits, with the exception of the live cover of Led Zeppelin's "In the Light", recorded on 16 December 1996 at the Galaxy Theatre of Santa Ana, California, of the 2 October 1999 live recording of "The Angel Song", taken at the House of Blues of Myrtle Beach, South Carolina and of "Rollin' Stoned", presented in its original form.

While one infamous nightclub show eclipsed their previous achievements, the hard rock/heavy metal band Great White would much rather you remember their Grammy nomination for Best Hard Rock Performance, the over six million records they sold, and their double platinum album …Twice Shy.

Formed in the early '80s by vocalist Jack Russell and guitarist Mark Kendall, Great White were regulars of the L.A. club scene, playing their Led Zeppelin- and AC/DC-influenced metal to a quickly growing fan base. Local radio play and more gigging helped sell 20,000 copies of their independent releases, the Out of the Night EP and the full-length Shot in the Dark, both released in 1983.

The EMI label took notice, signed the band, and released its self-titled, major-label debut a year later. Shot in the Dark would be reissued by the label in 1987, the same year as the new album Once Bitten… appeared with the hit single "Rock Me." The album went platinum, but 1989's …Twice Shy took things even further thanks in no small part to the massive success of the single "Once Bitten Twice Shy," a cover of a Mott the Hoople song written by Mott member Ian Hunter.

Long tours with Ratt and a co-headlined tour with Tesla kept the band out of the studio until 1991 when the polished Hooked appeared with two different album covers, one a provocative side shot of a mermaid hanging off an anchor in mid-air and one less scandalous with the mermaid still submerged. Hooked went gold while their 1992 follow-up, Psycho City, sold less, leading to EMI saying goodbye to the band with the 1993 compilation The Best of Great White.

Sail Away from 1994 found the band on Zoo, while 1996's Let It Rock was released by Imago. A live set of cover tunes featuring the work of their favorite band appeared as Great Zeppelin: A Tribute to Led Zeppelin, released by Cleopatra in 1999. That same year, Can't Get There from Here on the Portrait label gave fans their first taste of Russell's new writing partnership with longtime friend and former Night Ranger member Jack Blades. Another set of covers formed the 2002 Cleopatra album Recover, but this time the choices were surprising, with the Cult's "Love Removal Machine" and X's "Burning House of Love" getting the Great White treatment.

Forgotten by the mainstream, they were brought back into the limelight when pyrotechnics used by the band sparked a fire in a Rhode Island nightclub on February 20, 2003, killing 100 people, including the band's guitarist, Ty Longley. The 2004 reissue of Recover drew some media attention, since the Horizon label had given it a new and now morbid title, Burning House of Love. Trials concerning the fire continued on into 2006 as questions concerning who authorized the pyrotechnics were being investigated. The band spent the rest of the year touring and playing some benefit concerts for victims of the fire. In early 2007 they began celebrating their 25th anniversary with some West Coast shows that were tied to the release of VH1 Classic Presents: Metal Mania - Stripped, Vol. 3 and in the summer they released a new studio album, Back to the Rhythm.

~ David Jeffries, All Music
Great White - Latest & Greatest (2000)


***************

Great White - Latest & Greatest (2000)

Track List:

01. In The Light (Live) [0:06:07.72]
02. Rock Me [0:07:08.20]
03. Face The Day [0:05:58.50]
04. Once Bitten, Twice Shy [0:05:24.60]
05. Rollin' Stoned [0:04:10.20]
06. Call It Rock 'N Roll [0:04:13.43]
07. Save Your Love [0:04:41.60]
08. Can't Shake It [0:05:10.20]
09. House Of Broken Love [0:05:57.17]
10. Mista Bone [0:05:07.55]
11. The Angel Song (Live) [0:05:08.00]
12. Lady Red Light [0:04:38.30]

Personnel:
Jack Russell - vocals, percussion
Mark Kendall - lead guitar, percussion, backing vocals
Michael Lardie - guitar, keyboards, percussion, backing vocals
Sean McNabb - bass
Audie Desbrow - drums

Exact Audio Copy V1.1 from 23. June 2015

EAC extraction logfile from 15. May 2016, 11:19

Great White / Latest & Greatest [498801 2]

Used drive : HL-DT-STBD-RE BH10LS38 Adapter: 1 ID: 1

Read mode : Secure
Utilize accurate stream : Yes
Defeat audio cache : Yes
Make use of C2 pointers : No

Read offset correction : 667
Overread into Lead-In and Lead-Out : No
Fill up missing offset samples with silence : Yes
Delete leading and trailing silent blocks : No
Null samples used in CRC calculations : Yes
Used interface : Installed external ASPI interface

Used output format : User Defined Encoder
Selected bitrate : 128 kBit/s
Quality : High
Add ID3 tag : No
Command line compressor : C:\Program Files (x86)\Exact Audio Copy\wavpack-4.60.1\wavpack.exe
Additional command line options : -hm -w "Year=%year%" -w "Genre=%genre%" %source% %dest%


TOC of the extracted CD

Track | Start | Length | Start sector | End sector
––––––––––––––––––––––––––––-
1 | 0:00.00 | 6:07.72 | 0 | 27596
2 | 6:07.72 | 7:08.20 | 27597 | 59716
3 | 13:16.17 | 5:58.50 | 59717 | 86616
4 | 19:14.67 | 5:24.60 | 86617 | 110976
5 | 24:39.52 | 4:10.20 | 110977 | 129746
6 | 28:49.72 | 4:13.43 | 129747 | 148764
7 | 33:03.40 | 4:41.60 | 148765 | 169899
8 | 37:45.25 | 5:10.20 | 169900 | 193169
9 | 42:55.45 | 5:57.17 | 193170 | 219961
10 | 48:52.62 | 5:07.55 | 219962 | 243041
11 | 54:00.42 | 5:08.00 | 243042 | 266141
12 | 59:08.42 | 4:38.30 | 266142 | 287021


Range status and errors

Selected range

Filename G:\Rips by Alder\Great White - Latest & Greatest [498801 2].wav

Peak level 99.2 %
Extraction speed 7.6 X
Range quality 99.9 %
Test CRC F092197F
Copy CRC F092197F
Copy OK

No errors occurred


AccurateRip summary

Track 1 accurately ripped (confidence 4) [6EDB2932] (AR v1)
Track 2 accurately ripped (confidence 4) [E9436F7F] (AR v1)
Track 3 accurately ripped (confidence 4) [DC3C9B98] (AR v1)
Track 4 accurately ripped (confidence 4) [578DB234] (AR v1)
Track 5 accurately ripped (confidence 4) [C6812F5E] (AR v1)
Track 6 accurately ripped (confidence 4) [0B7401A6] (AR v1)
Track 7 accurately ripped (confidence 4) [D56A10FC] (AR v1)
Track 8 accurately ripped (confidence 4) [EEB46776] (AR v1)
Track 9 accurately ripped (confidence 4) [10E5789E] (AR v1)
Track 10 accurately ripped (confidence 4) [76EB5F9B] (AR v1)
Track 11 accurately ripped (confidence 4) [E15D1A6F] (AR v1)
Track 12 accurately ripped (confidence 4) [01D4C6F5] (AR v1)

All tracks accurately ripped

End of status report

–– CUETools DB Plugin V2.1.6

[CTDB TOCID: 5W0HSxf_evVfhJQfaPbyX3NygAQ-] found
Submit result: 5W0HSxf_evVfhJQfaPbyX3NygAQ- has been submitted
Track | CTDB Status
1 | (0/4) No match
2 | (0/4) No match
3 | (0/4) No match
4 | (0/4) No match
5 | (0/4) No match
6 | (0/4) No match
7 | (0/4) No match
8 | (0/4) No match
9 | (0/4) No match
10 | (0/4) No match
11 | (0/4) No match
12 | (0/4) No match


==== Log checksum A6778CF389640594F64C683571F9392D2D6F4709636A2407456242355BD76041 ====

foobar2000 1.2.6 / Dynamic Range Meter 1.1.1
log date: 2016-05-15 16:57:38

––––––––––––––––––––––––––––––––––––––––
Analyzed: Great White / Latest & Greatest [498801 2]
––––––––––––––––––––––––––––––––––––––––

DR Peak RMS Duration Track
––––––––––––––––––––––––––––––––––––––––
DR9 -0.10 dB -10.79 dB 6:08 01-In The Light (Live)
DR8 -0.10 dB -10.45 dB 7:08 02- Rock Me
DR8 -0.10 dB -10.81 dB 5:59 03- Face The Day
DR9 -0.10 dB -10.36 dB 5:25 04-Once Bitten, Twice Shy
DR7 -0.06 dB -7.89 dB 4:10 05- Rollin' Stoned
DR8 -0.10 dB -8.26 dB 4:14 06-Call It Rock 'N Roll
DR9 -0.10 dB -11.75 dB 4:42 07-Save Your Love
DR7 -0.10 dB -8.71 dB 5:10 08- Can't Shake It
DR9 -0.10 dB -11.14 dB 5:57 09- House Of Broken Love
DR8 -0.10 dB -8.98 dB 5:08 10- Mista Bone
DR12 -0.10 dB -13.37 dB 5:08 11- The Angel Song (Live)
DR8 -0.10 dB -9.31 dB 4:38 12- Lady Red Light
––––––––––––––––––––––––––––––––––––––––

Number of tracks: 12
Official DR value: DR8

Samplerate: 44100 Hz
Channels: 2
Bits per sample: 16
Bitrate: 995 kbps
Codec: FLAC
================================================================================

[CUETools log; Date: 15.05.2016 16:57:34; Version: 2.1.5]
[CTDB TOCID: 5W0HSxf_evVfhJQfaPbyX3NygAQ-] found.
Track | CTDB Status
1 | (1/5) Accurately ripped
2 | (1/5) Accurately ripped
3 | (1/5) Accurately ripped
4 | (1/5) Accurately ripped
5 | (1/5) Accurately ripped
6 | (1/5) Accurately ripped
7 | (1/5) Accurately ripped
8 | (1/5) Accurately ripped
9 | (1/5) Accurately ripped
10 | (1/5) Accurately ripped
11 | (1/5) Accurately ripped
12 | (1/5) Accurately ripped
[AccurateRip ID: 001da482-011063ca-ba0ef20c] found.
Track [ CRC | V2 ] Status
01 [6edb2932|669df2a6] (4+0/6) Accurately ripped
02 [e9436f7f|f7f82bf9] (4+0/4) Accurately ripped
03 [dc3c9b98|19263ad5] (4+0/4) Accurately ripped
04 [578db234|0de2b022] (4+0/4) Accurately ripped
05 [c6812f5e|fba34f6b] (4+0/4) Accurately ripped
06 [0b7401a6|aaa3f106] (4+0/4) Accurately ripped
07 [d56a10fc|5ffb17cf] (4+0/4) Accurately ripped
08 [eeb46776|dbba4800] (4+0/4) Accurately ripped
09 [10e5789e|6b8353ac] (4+0/4) Accurately ripped
10 [76eb5f9b|d4f5174a] (4+0/4) Accurately ripped
11 [e15d1a6f|3e7137a4] (4+0/4) Accurately ripped
12 [01d4c6f5|ea44fbff] (4+0/4) Accurately ripped
Offsetted by 2348:
01 [70c038ea] (0/6) No match (V2 was not tested)
02 [cafcd527] (0/4) No match (V2 was not tested)
03 [141c6c68] (0/4) No match
04 [2bbe45c0] (0/4) No match
05 [2b75fc0a] (0/4) No match
06 [bca87a06] (0/4) No match
07 [7d8c40c0] (0/4) No match
08 [61d8a0f6] (0/4) No match
09 [ff793096] (0/4) No match
10 [3217b3d3] (0/4) No match
11 [d022d3b3] (0/4) No match
12 [0351cfed] (0/4) No match

Track Peak [ CRC32 ] [W/O NULL] [ LOG ]
– 99,2 [F092197F] [59EA77A8] CRC32
01 98,8 [58F7F12F] [8F95B857]
02 98,8 [76918688] [F6D2FBD5]
03 98,8 [8FFFACCE] [15337F04]
04 98,8 [C13186B3] [505AC024]
05 99,2 [0ABF84FD] [6FE4929F]
06 98,8 [DABC98A9] [6769FCEB]
07 98,8 [5965002A] [1AFE8451]
08 98,8 [75784D66] [223AB406]
09 98,8 [F9D75E68] [B19D48B3]
10 98,8 [A51E57F1] [098ED225]
11 98,8 [0ECC991B] [A1D046FD]
12 98,8 [80DF3A49] [4829712F]

Great White - Latest & Greatest (2000)


All thanks go to Alder

>>> Great White in my Blog <<<

DOWNLOAD: