Subcategories

Great King Rat - Great King Rat (1992)

Posted By: Andi_Deris
Great King Rat - Great King Rat (1992)

Great King Rat - Great King Rat (1992)
EAC Rip | FLAC: IMAGE+CUE+LOG | 389.99 MB | MP3 CBR 320 kbps | 124.83 MB | Time: 46:46 | Covers
Genre: Melodic Hard Rock | Label: Planet Records | Cat.#: MOP CD 3055

Great King Rat released a spectacular Melodic Hard Rock album in 1992 to universal acclaim. Hard driven melodic rock but always catchy. Their first album is more and more considered as classic.

Musicmight
Amazon

Great King Rat - Great King Rat (1992)

Great King Rat - Great King Rat (1992)


Track Listing:

1. Bright Lights (4:59)
2. Good Times (3:01)
3. Woman in Love (4:14)
4. Ball & Chain (3:13)
5. Take Me Back (6:00)
6. Follow The Rains (3:39)
7. One By One (5:08)
8. Dirty Old Man Stomp (3:50)
9. Calling For My Angel (4:51)
10. Top Of The World (3:43)
11. Bad Woman (Bonus Track) (4:08)

Produced by Rolf Alex

THE BAND:

Leif Sundin (John Norum, Michael Schenker Group) - Lead and Backing Vocals, Acoustic Guitar
Anders Nilsson - Rhythm Guitars, Keyboards, Backing Vocals
Pontus Norgren - Lead Guitar, Acoustic Guitar, backing Vocals
Mikael Höglund - Bass, Backing Vocals
Tomas Broman - Drums

Additional musicians:
Mikael Andersson - backing vocals, lap steel (6)
Rolf Alex - percussion
Backa-Hans Eriksson - cello (1)
Frans Lugmair - harmonica (7)
Mats Olausson - keyboards (1, 6), piano (8)

Exact Audio Copy V0.99 prebeta 5 from 4. May 2009

EAC extraction logfile from 28. May 2010, 18:20

Great King Rat / Great King Rat

Used drive : PIONEER DVD-RW DVR-215D Adapter: 3 ID: 0

Read mode : Secure
Utilize accurate stream : Yes
Defeat audio cache : Yes
Make use of C2 pointers : No

Read offset correction : 48
Overread into Lead-In and Lead-Out : No
Fill up missing offset samples with silence : Yes
Delete leading and trailing silent blocks : No
Null samples used in CRC calculations : Yes
Used interface : Native Win32 interface for Win NT & 2000

Used output format : User Defined Encoder
Selected bitrate : 768 kBit/s
Quality : High
Add ID3 tag : No
Command line compressor : C:\Program Files\Exact Audio Copy\FLAC\FLAC.EXE
Additional command line options : -8 -V %s


TOC of the extracted CD

Track | Start | Length | Start sector | End sector
––––––––––––––––––––––––––––-
1 | 0:00.00 | 4:59.07 | 0 | 22431
2 | 4:59.07 | 3:01.15 | 22432 | 36021
3 | 8:00.22 | 4:14.45 | 36022 | 55116
4 | 12:14.67 | 3:13.00 | 55117 | 69591
5 | 15:27.67 | 6:00.48 | 69592 | 96639
6 | 21:28.40 | 3:39.27 | 96640 | 113091
7 | 25:07.67 | 5:08.25 | 113092 | 136216
8 | 30:16.17 | 3:50.33 | 136217 | 153499
9 | 34:06.50 | 4:51.22 | 153500 | 175346
10 | 38:57.72 | 3:43.25 | 175347 | 192096
11 | 42:41.22 | 4:08.58 | 192097 | 210754


Range status and errors

Selected range

Filename C:\lossless\my Rips\Great King Rat\Great King Rat 1992 (Planet Records, MOP CD 3055)\Great King Rat - Great King Rat.wav

Peak level 100.0 %
Range quality 100.0 %
Test CRC A129FCCE
Copy CRC A129FCCE
Copy OK

No errors occurred


AccurateRip summary

Track 1 not present in database
Track 2 not present in database
Track 3 not present in database
Track 4 not present in database
Track 5 not present in database
Track 6 not present in database
Track 7 not present in database
Track 8 not present in database
Track 9 not present in database
Track 10 not present in database
Track 11 not present in database

None of the tracks are present in the AccurateRip database

End of status report


Many thanks to the original uploader: boets
**********
Download: LOSSLESS

Uploaded | Depositfiles | Turbobit

**********
Download: MP3

Uploaded | Depositfiles | Turbobit