Subcategories
Tags
Language
Tags

Greenslade - Spyglass Guest (1974) & Time and Tide (1975) [Reissue 2011]

Posted By: gribovar
Greenslade - Spyglass Guest (1974) & Time and Tide (1975) [Reissue 2011]

Greenslade - Spyglass Guest (1974) & Time and Tide (1975) [Reissue 2011]
EAC Rip | FLAC (image+.cue+log) - 408 MB | MP3 CBR 320 kbps (LAME 3.93) - 167 MB | Covers - 51 MB
Genre: Progressive Rock | RAR 3% Rec. | Label: Edsel Records (EDSD 2098)

Greenslade were something of a prog rock supergroup when they formed in 1972. Dave Greenslade (son of Arthur Greenslade, noted arranger for Scott Walker, Dusty Springfield and many more) had been the keyboard player in jazz rock oufits Colosseum and If. Bass player Tony Reeves also came from the ranks of Colosseum, while drummer Andy McCulloch had been in the "Lizard" line-up of King Crimson. Vocalist/second keyboard player Dave Lawson had been in Episode Six and The Alan Bown Set and the unique ‘two keyboards/no guitar lineup’ gave them a signature sound. This Edsel package contains the group’s third and fourth albums, originally issued on the Warner Bros. label in 1974 and 1975. The booklet contains all the lyrics, and annotation by Alan Robinson.

CD 1 Tracklist (Spyglass Guest, 1974):
01. Spirit of the Dance
02. Little Red Fry-up
03. Rainbow
04. Siam Seesaw
05. Joie De Vivre
06. Red Light
07. Melancholic Race
08. Theme for an Imaginary Western

Total time: 38:47

CD 2 Tracklist (Time and Tide, 1975):
01. Animal Farm
02. Newsworth
03. Time
04. Tide
05. Catalan
06. The Flattery Stakes
07. Waltz For A Fallen Idol
08. The Ass's Ears
09. Doldrums
10. Gangsters

Total time: 32:32

Exact Audio Copy V1.0 beta 3 from 29. August 2011

Отчёт EAC об извлечении, выполненном 15. ноября 2012, 19:20

Greenslade / Spyglass Guest

Дисковод: TSSTcorpCDDVDW TS-L633J Adapter: 0 ID: 1

Режим чтения : Достоверность
Использование точного потока : Да
Отключение кэша аудио : Да
Использование указателей C2 : Нет

Коррекция смещения при чтении : 6
Способность читать области Lead-in и Lead-out : Нет
Заполнение пропущенных сэмплов тишиной : Да
Удаление блоков с тишиной в начале и конце : Нет
При вычислениях CRC использовались нулевые сэмплы : Да
Интерфейс : Установленный внешний ASPI-интерфейс

Выходной формат : Пользовательский кодировщик
Выбранный битрейт : 128 kBit/s
Качество : Высокий
Добавление ID3-тега : Нет
Утилита сжатия : C:\Program Files\Exact Audio Copy\FLAC\FLAC.EXE
Дополнительные параметры : -6 -V -T "ARTIST=%artist%" -T "TITLE=%title%" -T "ALBUM=%albumtitle%" -T "DATE=%year%" -T "TRACKNUMBER=%tracknr%" -T "GENRE=%genre%" -T "COMMENT=%comment%" -T "BAND=%albuminterpret%" -T "ALBUMARTIST=%albuminterpret%" -T "COMPOSER=%composer%" %haslyrics%–tag-from-file=LYRICS="%lyricsfile%"%haslyrics% -T "DISCNUMBER=%cdnumber%" -T "TOTALDISCS=%totalcds%" -T "TOTALTRACKS=%numtracks%" %hascover%–picture="%coverfile%"%hascover% %source% -o %dest%


TOC извлечённого CD

Трек | Старт | Длительность | Начальный сектор | Конечный сектор
––––––––––––––––––––––––––––––––––-
1 | 0:00.00 | 5:09.09 | 0 | 23183
2 | 5:09.09 | 5:06.54 | 23184 | 46187
3 | 10:15.63 | 4:22.32 | 46188 | 65869
4 | 14:38.20 | 4:44.32 | 65870 | 87201
5 | 19:22.52 | 8:26.25 | 87202 | 125176
6 | 27:49.02 | 2:48.42 | 125177 | 137818
7 | 30:37.44 | 4:15.48 | 137819 | 156991
8 | 34:53.17 | 3:53.70 | 156992 | 174536


Характеристики диапазона извлечения и сообщения об ошибках

Выбранный диапазон

Имя файла D:\РИПЫ\GREENSLADE\Greenslade - Spyglass Guest.wav

Пиковый уровень 99.4 %
Скорость извлечения 2.7 X
Качество диапазона 100.0 %
CRC теста 3E0F875E
CRC копии 3E0F875E
Копирование… OK

Ошибок не произошло


AccurateRip: сводка

Трек 1 отсутствует в базе данных
Трек 2 отсутствует в базе данных
Трек 3 отсутствует в базе данных
Трек 4 отсутствует в базе данных
Трек 5 отсутствует в базе данных
Трек 6 отсутствует в базе данных
Трек 7 отсутствует в базе данных
Трек 8 отсутствует в базе данных

Ни одного трека нет в базе AccurateRip

Конец отчёта

–– CUETools DB Plugin V2.1.3

[CTDB TOCID: CuVCaNU0.Rgu_vWiE6.R6V2qxHk-] found, Submit result: CuVCaNU0.Rgu_vWiE6.R6V2qxHk- has been confirmed
[eefff56e] (3/3) Accurately ripped


==== Контрольная сумма отчёта 82D28348850946812F201DB3B5C9CBA689BEB268176DCC0CFD085CB2631335E7 ====

[CUETools log; Date: 20.12.2020 0:35:47; Version: 2.1.4]
[CTDB TOCID: CuVCaNU0.Rgu_vWiE6.R6V2qxHk-] found.
Track | CTDB Status
1 | (33/33) Accurately ripped
2 | (33/33) Accurately ripped
3 | (33/33) Accurately ripped
4 | (33/33) Accurately ripped
5 | (33/33) Accurately ripped
6 | (33/33) Accurately ripped
7 | (33/33) Accurately ripped
8 | (33/33) Accurately ripped
[AccurateRip ID: 000c7749-0052cf2b-65091708] found.
Track [ CRC | V2 ] Status
01 [924a4c6a|ed257c9b] (03+18/21) Accurately ripped
02 [504d5f8e|0eee2b9f] (03+18/21) Accurately ripped
03 [b6227fb1|b4e1f231] (03+18/21) Accurately ripped
04 [e49bcb6c|5b3c3c14] (03+18/21) Accurately ripped
05 [65d6adfd|42288863] (03+18/21) Accurately ripped
06 [e0bf0b54|69c82d99] (03+18/21) Accurately ripped
07 [77973d86|aed90c96] (03+18/21) Accurately ripped
08 [3fdd7184|9808656a] (03+18/21) Accurately ripped

Track Peak [ CRC32 ] [W/O NULL] [ LOG ]
– 99,4 [3E0F875E] [A357F554] CRC32
01 99,4 [3C81CC2C] [185B83DC]
02 99,4 [F5574191] [B6C0B911]
03 99,4 [512C5137] [337C1C70]
04 99,4 [CD426122] [D6FF81B1]
05 99,4 [C7DCBD7F] [7BBCC876]
06 99,4 [2406AE6C] [92E8A94D]
07 99,4 [EB89F5D8] [3F70530D]
08 99,4 [BCCEEA6A] [03260B00]

Exact Audio Copy V1.0 beta 3 from 29. August 2011

Отчёт EAC об извлечении, выполненном 15. ноября 2012, 19:51

Greenslade / Time and Tide

Дисковод: TSSTcorpCDDVDW TS-L633J Adapter: 0 ID: 1

Режим чтения : Достоверность
Использование точного потока : Да
Отключение кэша аудио : Да
Использование указателей C2 : Нет

Коррекция смещения при чтении : 6
Способность читать области Lead-in и Lead-out : Нет
Заполнение пропущенных сэмплов тишиной : Да
Удаление блоков с тишиной в начале и конце : Нет
При вычислениях CRC использовались нулевые сэмплы : Да
Интерфейс : Установленный внешний ASPI-интерфейс

Выходной формат : Пользовательский кодировщик
Выбранный битрейт : 128 kBit/s
Качество : Высокий
Добавление ID3-тега : Нет
Утилита сжатия : C:\Program Files\Exact Audio Copy\FLAC\FLAC.EXE
Дополнительные параметры : -6 -V -T "ARTIST=%artist%" -T "TITLE=%title%" -T "ALBUM=%albumtitle%" -T "DATE=%year%" -T "TRACKNUMBER=%tracknr%" -T "GENRE=%genre%" -T "COMMENT=%comment%" -T "BAND=%albuminterpret%" -T "ALBUMARTIST=%albuminterpret%" -T "COMPOSER=%composer%" %haslyrics%–tag-from-file=LYRICS="%lyricsfile%"%haslyrics% -T "DISCNUMBER=%cdnumber%" -T "TOTALDISCS=%totalcds%" -T "TOTALTRACKS=%numtracks%" %hascover%–picture="%coverfile%"%hascover% %source% -o %dest%


TOC извлечённого CD

Трек | Старт | Длительность | Начальный сектор | Конечный сектор
––––––––––––––––––––––––––––––––––-
1 | 0:00.00 | 3:26.44 | 0 | 15493
2 | 3:26.44 | 3:02.60 | 15494 | 29203
3 | 6:29.29 | 1:17.32 | 29204 | 35010
4 | 7:46.61 | 2:50.55 | 35011 | 47815
5 | 10:37.41 | 5:04.48 | 47816 | 70663
6 | 15:42.14 | 3:57.39 | 70664 | 88477
7 | 19:39.53 | 3:18.43 | 88478 | 103370
8 | 22:58.21 | 3:23.67 | 103371 | 118662
9 | 26:22.13 | 3:42.08 | 118663 | 135320
10 | 30:04.21 | 2:27.18 | 135321 | 146363


Характеристики диапазона извлечения и сообщения об ошибках

Выбранный диапазон

Имя файла D:\РИПЫ\GREENSLADE\Greenslade - Time and Tide.wav

Пиковый уровень 99.4 %
Скорость извлечения 2.6 X
Качество диапазона 99.9 %
CRC теста 25F8DD6E
CRC копии 25F8DD6E
Копирование… OK

Ошибок не произошло


AccurateRip: сводка

Трек 1 отсутствует в базе данных
Трек 2 отсутствует в базе данных
Трек 3 отсутствует в базе данных
Трек 4 отсутствует в базе данных
Трек 5 отсутствует в базе данных
Трек 6 отсутствует в базе данных
Трек 7 отсутствует в базе данных
Трек 8 отсутствует в базе данных
Трек 9 отсутствует в базе данных
Трек 10 отсутствует в базе данных

Ни одного трека нет в базе AccurateRip

Конец отчёта

–– CUETools DB Plugin V2.1.3

[CTDB TOCID: tmkOsBkDNQi.pGZ3MKu8P23aivk-] found, Submit result: tmkOsBkDNQi.pGZ3MKu8P23aivk- has been confirmed
[5f87e64c] (2/2) Accurately ripped


==== Контрольная сумма отчёта 90000D8CDB522AC4600BBDD62A96CD29E8FCC6AF0CA5E3B3BAA18A374688DB51 ====

[CUETools log; Date: 20.12.2020 0:36:34; Version: 2.1.4]
[CTDB TOCID: tmkOsBkDNQi.pGZ3MKu8P23aivk-] found.
Track | CTDB Status
1 | (32/32) Accurately ripped
2 | (32/32) Accurately ripped
3 | (32/32) Accurately ripped
4 | (32/32) Accurately ripped
5 | (32/32) Accurately ripped
6 | (32/32) Accurately ripped
7 | (32/32) Accurately ripped
8 | (31/32) Accurately ripped
9 | (32/32) Accurately ripped
10 | (32/32) Accurately ripped
[AccurateRip ID: 000c0f72-0061a4e4-86079f0a] found.
Track [ CRC | V2 ] Status
01 [377d54b5|4a036682] (03+19/22) Accurately ripped
02 [bc1a5fec|6aa39229] (03+19/22) Accurately ripped
03 [1df6bada|9a5fa602] (03+19/22) Accurately ripped
04 [17b2a689|289d8f2c] (03+19/22) Accurately ripped
05 [accc6cb3|fd6a7531] (03+19/22) Accurately ripped
06 [bbc7d1d0|bd66b5d9] (03+19/22) Accurately ripped
07 [9ae03f5b|9495a060] (03+19/22) Accurately ripped
08 [70b8814f|c8bec0c5] (03+19/22) Accurately ripped
09 [cf59b3e6|66a69b45] (03+19/22) Accurately ripped
10 [4b0ec14f|09f9208d] (03+19/22) Accurately ripped

Track Peak [ CRC32 ] [W/O NULL] [ LOG ]
– 99,4 [25F8DD6E] [96C520E4] CRC32
01 99,4 [AE6E6798] [F5A90D55]
02 99,4 [27DC7939] [E84C621E]
03 99,4 [AF38D397] [CC389F58]
04 80,4 [EE2B3157] [8A908C29]
05 99,4 [04EF4FBB] [49E4DA91]
06 99,4 [01C143AC] [10B785E3]
07 99,4 [0DA927C0] [B5C9B159]
08 99,4 [F1B67B44] [0517BBB8]
09 99,4 [0940FBC4] [C5CEFA1C]
10 99,4 [921E32DA] [D539B114]

Thanks to reverse77777