Subcategories

Greg Lake - King Biscuit Flower Hour Presents: Greg Lake in Concert (1995) [Columbia Music Japan, VQCD-10175] Repost

Posted By: v3122
Daken - Dark Wolverine #1-23 (2010-2012) Complete

Greg Lake - King Biscuit Flower Hour Presents: Greg Lake in Concert (1995)
EAC | Flac(Image) + Cue + Log & MP3 CBR 320Kbps
2011 | Columbia Music Japan, VQCD-10175 | ~ 414 or 140 Mb | Scans(png) -> 257 Mb
Progressive Rock, Art Rock

The show captured on King Biscuit Flower Hour (In Concert) (1996) was recorded circa Greg Lake's 1981 self-titled debut, and features Lake (guitar/bass/vocals) leading an impressive backing combo with Gary Moore (guitar), Ted McKenna (drums), Tommy Eyre (keyboards), and Tristian Margetts (bass). The set originated as a King Biscuit Flower Hour broadcast from the Hammersmith Odeon in London on November 5, 1981. During this time, Lake was on an extended hiatus from Emerson, Lake and Palmer (ELP), and issued a pair of solo efforts. As such, the play list is heavy on Greg Lake(1981) material from the first of these. Standouts among the lot are the slightly synth sounding "Retribution Drive," and the edgy-'80s power rockers "The Lie" and "Nuclear Attack." Also worth mentioning is the upbeat and agile "Love You Too Much," which Lake actually co-wrote with Bob Dylan. Likewise, there are classics dating back to the King Crimson sides – "21st Century Schizoid Man" and "In The Court Of The Crimson King" – from Lake's brief tenure in the band. The unit heard here is not as lean as the ELP version, and both "Fanfare For The Common Man" and "Karn Evil 9" prove just that, as the arrangements lumber along in places. However, in terms of sheer musicality, the acoustic side, "Lucky Man," is arguably the highlight in its simplicity. For enthusiasts looking for a passable anthology, From the Beginning: Retrospective (1997) is a good place to start. From the Underground: The Official Bootleg (1998) is a perfect companion, as it features essential stops in Lake's live legacy.

by Lindsay Planer, allmusic
Greg Lake - King Biscuit Flower Hour Presents: Greg Lake in Concert (1995):

Daken - Dark Wolverine #1-23 (2010-2012) Complete

Tracklist:

01. Fanfare For The Common Man (Aaron Copland) 06:10
02. Karn Evil 9 / Nuclear Attack (K.Emerson, G.Lake, P.Sinfield / Gary Moore) 05:45
03. The Lie (G.Lake, T.Eyre, T.Benyon) 04:33
04. Retribution Drive (G.Lake, T.Benyon, T.Eyre) 05:41
05. Lucky Man (Greg Lake) 04:50
06. Parisienene Walkways (G.Moore, P.Lynott) 06:03
07. You Really Got A Hold On Me (William "Smokey" Robinson) 05:25
08. Love You Too Much (B.Dylan, H.Springs, G.Lake) 05:03
09. 21st Century Schizoid Man (R.Fripp, I.McDonald, G.Lake, M.Gilles, P.Sinfield) 09:06
10. In The Court Of The Crimson King (I.McDonald, P.Sinfield) 05:39

Live in concert on November 5, 1981 at the Hammersmith Odeon in London/England

Exact Audio Copy V1.0 beta 3 from 29. August 2011

EAC extraction logfile from 12. February 2012, 11:34

Greg Lake / Manoeuvres

Used drive : HL-DT-STDVDRAM GSA-H60N Adapter: 2 ID: 0

Read mode : Secure
Utilize accurate stream : Yes
Defeat audio cache : Yes
Make use of C2 pointers : No

Read offset correction : 667
Overread into Lead-In and Lead-Out : No
Fill up missing offset samples with silence : Yes
Delete leading and trailing silent blocks : No
Null samples used in CRC calculations : Yes
Used interface : Native Win32 interface for Win NT & 2000

Used output format : Internal WAV Routines
Sample format : 44.100 Hz; 16 Bit; Stereo


TOC of the extracted CD

Track | Start | Length | Start sector | End sector
––––––––––––––––––––––––––––-
1 | 0:00.00 | 4:06.10 | 0 | 18459
2 | 4:06.10 | 4:06.70 | 18460 | 36979
3 | 8:13.05 | 3:59.33 | 36980 | 54937
4 | 12:12.38 | 4:32.45 | 54938 | 75382
5 | 16:45.08 | 3:56.17 | 75383 | 93099
6 | 20:41.25 | 7:11.04 | 93100 | 125428
7 | 27:52.29 | 3:06.42 | 125429 | 139420
8 | 30:58.71 | 3:23.42 | 139421 | 154687
9 | 34:22.38 | 4:54.13 | 154688 | 176750
10 | 39:16.51 | 5:16.16 | 176751 | 200466


Range status and errors

Selected range

Filename C:\Documents and Settings\Admin\Рабочий стол\ALLexxess\Greg Lake\1983 Manoeuvres (Columbia Music Japan Mini LP SHM-CD 2011)\Greg Lake - Manoeuvres.wav

Peak level 99.1 %
Extraction speed 5.8 X
Range quality 100.0 %
Test CRC BE3DC7BA
Copy CRC BE3DC7BA
Copy OK

No errors occurred


AccurateRip summary

Track 1 accurately ripped (confidence 2) [F734DE53] (AR v1)
Track 2 accurately ripped (confidence 2) [63BD1B99] (AR v1)
Track 3 accurately ripped (confidence 2) [5151CF31] (AR v1)
Track 4 accurately ripped (confidence 2) [47F8F7B5] (AR v1)
Track 5 accurately ripped (confidence 2) [288AF4B6] (AR v1)
Track 6 accurately ripped (confidence 2) [605CD431] (AR v1)
Track 7 accurately ripped (confidence 2) [2CF7A9A2] (AR v1)
Track 8 accurately ripped (confidence 2) [94DE5B3F] (AR v1)
Track 9 accurately ripped (confidence 2) [0F23770E] (AR v1)
Track 10 accurately ripped (confidence 2) [B66F0ED3] (AR v1)

All tracks accurately ripped

End of status report

==== Log checksum 8AEBD0B08228989DC8BF7428F722F74BB436F8808DD6A918F81E550D9AD7C711 ====


[CUETools log; Date: 23.05.2018 16:06:07; Version: 2.1.5]
[CTDB TOCID: YqXobGPGqx0LfUFgdIvPPLIn6fM-] found.
Track | CTDB Status
1 | (8/8) Accurately ripped
2 | (8/8) Accurately ripped
3 | (8/8) Accurately ripped
4 | (8/8) Accurately ripped
5 | (8/8) Accurately ripped
6 | (8/8) Accurately ripped
7 | (8/8) Accurately ripped
8 | (8/8) Accurately ripped
9 | (8/8) Accurately ripped
10 | (8/8) Accurately ripped
[AccurateRip ID: 001069a1-0084295a-810a700a] found.
Track [ CRC | V2 ] Status
01 [f734de53|832d386a] (2+5/7) Accurately ripped
02 [63bd1b99|0ee57110] (2+5/7) Accurately ripped
03 [5151cf31|6da01a1a] (2+5/7) Accurately ripped
04 [47f8f7b5|aaa5edd6] (2+5/7) Accurately ripped
05 [288af4b6|17e04f3c] (2+5/7) Accurately ripped
06 [605cd431|1a7666dc] (2+5/7) Accurately ripped
07 [2cf7a9a2|6ca56899] (2+5/7) Accurately ripped
08 [94de5b3f|e415f80c] (2+5/7) Accurately ripped
09 [0f23770e|eae3fe49] (2+5/7) Accurately ripped
10 [b66f0ed3|6f4ab896] (2+5/7) Accurately ripped

Track Peak [ CRC32 ] [W/O NULL] [ LOG ]
– 99,1 [BE3DC7BA] [B554A33C] CRC32
01 99,1 [E9C426AA] [99F3ED6E]
02 99,1 [9EBDD345] [8C096125]
03 99,1 [87AEBF9A] [8AA12EE7]
04 95,1 [303142EF] [BF6EC8D4]
05 99,1 [B660902D] [FC518B17]
06 99,1 [E6710D38] [F22107E4]
07 99,1 [F9B29A19] [2959934D]
08 99,1 [85679664] [DCD51E41]
09 99,0 [E6E99E0A] [238AF5D7]
10 99,1 [CBFD674F] [F3E2F9FF]



All thanks go to ALLexxess

Greg Lake or Greg Lake in my Blog

Download Greg Lake - King Biscuit Flower Hour Presents: Greg Lake in Concert (1995):