Subcategories

Gregg Rolie - Gregg Rolie (1985) [2017, Japanese Reissue]

Posted By: BlondStyle
Gregg Rolie - Gregg Rolie (1985) [2017, Japanese Reissue]

Gregg Rolie - Gregg Rolie (1985) [2017, Japanese Reissue]
Rock, Melodic Rock, AOR, Electronic | EAC Rip | FLAC, Img+CUE+LOG+Scans (PNG) | 39:59 Min | 567,07 Mb
Label: Sony Music Labels Inc. (Japan) | Cat.# SICP-5489 | Released: 2017-08-23 (1985)

After leaving Journey right before the whirlwind arena rock-friendly, chart-topping superstardom that defined their career began, Gregg Rolie took some time off to catch his breath, reflect, and then hit the studio again on his own terms. Rather than be held down by other people's creative agendas, he took the solo course and released his eponymous solo debut. Collaborating with keyboardist Peter Wolf on the first three songs, Rolie favors a more polished, radio-friendly approach to his songs instead of the hard-driving rock sound of Santana and Journey. "I Wanna Go Back" would later be a hit for Eddie Money, but Rolie's version is taken with a sense of melancholy and sobriety when compared with Money's urgent plea to turn back the hands of time. The remainder of the album is straight-ahead, no-frills pop filler, instantly forgettable but pleasantly inoffensive. Guest cameos from Rolie's mentor Carlos Santana, former bandmate Neal Schon, and Starship's Craig Chaquico spice things up a bit, but that doesn't save the ship from merely meandering along song after song until the album's conclusion.
~Review by Rob Theakston

Gregg Rolie - Gregg Rolie (1985) [2017, Japanese Reissue]

Gregg Rolie - Gregg Rolie (1985) [2017, Japanese Reissue]


Release of the album: 1985 [LP Columbia Records, Cat.# FC 40080, USA]
Release of this CD: 2017, August, 23 [CD Sony Music Labels Inc. (Japan), Cat.# SICP-5489 / EAN: 4547366314847]
℗ © 1985 Sony Music Entertainment
Manufactured by Sony Music Labels Inc.
Made in Japan


Notes: Low-priced reissue with new liner notes. Available for a limited period of time until the end of 2018. A part of 'AOR City 1000' series.

Credits:

Producers – Bill Schnee (tracks: 1, 2, 3), Kevin Beamish (tracks: 4, 5, 6, 7, 8, 9, 10)

Tracklist:

01. Young Love (04:08)
02. Close My Eyes (04:32)
03. I Wanna Go Back (04:02)
04. Let Me Out (03:35)
05. Over And Over (04:03)
06. Don't Talk (03:09)
07. Zap Me (04:05)
08. Marianne (04:08)
09. It's Only Make Believe (03:59)
10. Deep Blue Sea (04:20)

Exact Audio Copy V1.3 from 2. September 2016

EAC extraction logfile from 25. November 2017, 17:22

Gregg Rolie / Gregg Rolie

Used drive : PIONEER BD-RW BDR-208D Adapter: 1 ID: 0

Read mode : Secure
Utilize accurate stream : Yes
Defeat audio cache : Yes
Make use of C2 pointers : No

Read offset correction : 667
Overread into Lead-In and Lead-Out : No
Fill up missing offset samples with silence : Yes
Delete leading and trailing silent blocks : No
Null samples used in CRC calculations : Yes
Used interface : Native Win32 interface for Win NT & 2000

Used output format : Internal WAV Routines
Sample format : 44.100 Hz; 16 Bit; Stereo


TOC of the extracted CD

Track | Start | Length | Start sector | End sector
––––––––––––––––––––––––––––-
1 | 0:00.00 | 4:08.03 | 0 | 18602
2 | 4:08.03 | 4:32.08 | 18603 | 39010
3 | 8:40.11 | 4:01.56 | 39011 | 57141
4 | 12:41.67 | 3:35.29 | 57142 | 73295
5 | 16:17.21 | 4:02.47 | 73296 | 91492
6 | 20:19.68 | 3:08.71 | 91493 | 105663
7 | 23:28.64 | 4:04.44 | 105664 | 124007
8 | 27:33.33 | 4:08.05 | 124008 | 142612
9 | 31:41.38 | 3:58.38 | 142613 | 160500
10 | 35:40.01 | 4:19.68 | 160501 | 179993


Range status and errors

Selected range

Filename D:\BlondStyle\Gregg Rolie - Gregg Rolie.wav

Peak level 96.4 %
Extraction speed 5.4 X
Range quality 100.0 %
Test CRC 0A6C2F7E
Copy CRC 0A6C2F7E
Copy OK

No errors occurred


AccurateRip summary

Track 1 cannot be verified as accurate (confidence 4) [39423625], AccurateRip returned [FB9A8960] (AR v2)
Track 2 cannot be verified as accurate (confidence 4) [B0EF977D], AccurateRip returned [4DE5770B] (AR v2)
Track 3 cannot be verified as accurate (confidence 4) [37001D6E], AccurateRip returned [0FAACBA0] (AR v2)
Track 4 cannot be verified as accurate (confidence 4) [AFBB45A2], AccurateRip returned [AF8AF3FC] (AR v2)
Track 5 cannot be verified as accurate (confidence 4) [7B8D751B], AccurateRip returned [441D0A43] (AR v2)
Track 6 cannot be verified as accurate (confidence 4) [755BB82C], AccurateRip returned [D8B33F5E] (AR v2)
Track 7 cannot be verified as accurate (confidence 4) [B5CAFD9B], AccurateRip returned [D716F80F] (AR v2)
Track 8 cannot be verified as accurate (confidence 4) [448A4F80], AccurateRip returned [F6C3A68F] (AR v2)
Track 9 cannot be verified as accurate (confidence 4) [20683CFF], AccurateRip returned [7D5E6710] (AR v2)
Track 10 cannot be verified as accurate (confidence 4) [F0522E77], AccurateRip returned [39F60957] (AR v2)

No tracks could be verified as accurate
You may have a different pressing from the one(s) in the database

End of status report

–– CUETools DB Plugin V2.1.6

[CTDB TOCID: YcIAIYAeeKo1ZIAc4dg6tIBVo5M-] found
Submit result: YcIAIYAeeKo1ZIAc4dg6tIBVo5M- has been confirmed
Track | CTDB Status
1 | (11/11) Accurately ripped
2 | (11/11) Accurately ripped
3 | (11/11) Accurately ripped
4 | (11/11) Accurately ripped
5 | (11/11) Accurately ripped
6 | (11/11) Accurately ripped
7 | (11/11) Accurately ripped
8 | (11/11) Accurately ripped
9 | (11/11) Accurately ripped
10 | (11/11) Accurately ripped


==== Log checksum 1694AC8AC1685FF8B2352CC6BEB2D4EAA98A8B5D67E57E64FAB7B511A32D6D4A ====

––––––––––––––––––––––––––––––––––––––––
Analyzed: Gregg Rolie / Gregg Rolie
––––––––––––––––––––––––––––––––––––––––

DR Peak RMS Duration Track
––––––––––––––––––––––––––––––––––––––––
DR7 -0.36 dB -9.63 dB 4:08 01-Young Love
DR9 -0.31 dB -10.63 dB 4:32 02-Close My Eyes
DR8 -0.34 dB -10.63 dB 4:02 03-I Wanna Go Back
DR8 -0.61 dB -10.03 dB 3:35 04-Let Me Out
DR8 -0.42 dB -10.90 dB 4:03 05-Over And Over
DR8 -0.39 dB -9.34 dB 3:09 06-Don't Talk
DR7 -0.55 dB -10.58 dB 4:05 07-Zap Me
DR7 -0.67 dB -9.78 dB 4:08 08-Marianne
DR7 -0.49 dB -11.17 dB 3:59 09-It's Only Make Believe
DR8 -0.49 dB -10.08 dB 4:20 10-Deep Blue Sea
––––––––––––––––––––––––––––––––––––––––

Number of tracks: 10
Official DR value: DR8

Samplerate: 44100 Hz
Channels: 2
Bits per sample: 16
Bitrate: 1006 kbps
Codec: FLAC
================================================================================

See also:

password: BlondStyle