Subcategories

Grencso Collective - Mistery (2000)

Posted By: v3122
Grencso Collective - Mistery (2000)

Grencso Collective - Mistery (2000)
EAC | Flac(Image) + Cue + Log & MP3 CBR 320Kbps
KVB, 0003 | ~ 255 or 138 Mb | Artwork(jpg) -> 58 Mb
Contemporary jazz

~ Recorded June 7, and September 19-21, 30, 1999 ~

Grencso Collective - Mistery (2000):

Grencso Collective - Mistery (2000)

Tracklist:

01. Nyaresti szerenad
02. Szeretni kell
03. Tuzpiros virag
04. Mar nem haragszom rad
05. Rejtely
06. Piros tulipan
07. Latod ez a szerelem
08. Jarom az utam
09. Hosszu az a nap
10. Ott fogsz majd sirni
11. Tuzpiros virag
12. Bocsanat, hogyha kerdem

Musicians:

István Grencsó - alto sax
Róbert Benkö - double bass
György Jeszenszky - drums


Exact Audio Copy V0.99 prebeta 5 from 4. May 2009

EAC extraction logfile from 9. April 2011, 13:08

Grencso Collective / Mistery

Used drive : TSSTcorpCDDVDW SH-S222A Adapter: 1 ID: 0

Read mode : Secure
Utilize accurate stream : Yes
Defeat audio cache : Yes
Make use of C2 pointers : No

Read offset correction : 6
Overread into Lead-In and Lead-Out : No
Fill up missing offset samples with silence : Yes
Delete leading and trailing silent blocks : No
Null samples used in CRC calculations : Yes
Used interface : Installed external ASPI interface
Gap handling : Appended to previous track

Used output format : User Defined Encoder
Selected bitrate : 768 kBit/s
Quality : High
Add ID3 tag : No
Command line compressor : C:\Tool\Compress\FLAC\flac.exe
Additional command line options : -8 -V -T "ARTIST=%a" -T "TITLE=%t" -T "ALBUM=%g" -T "DATE=%y" -T "TRACKNUMBER=%n" -T "TOTALTRACKS=%x" -T "GENRE=%m" -T "ALBUM ARTIST=%v" -T "COMMENT=EAC V0.99 prebeta 5, Secure Mode, Test & Copy, AccurateRip, FLAC -8" %s


TOC of the extracted CD

Track | Start | Length | Start sector | End sector
––––––––––––––––––––––––––––-
1 | 0:00.00 | 5:19.22 | 0 | 23946
2 | 5:19.22 | 3:11.61 | 23947 | 38332
3 | 8:31.08 | 5:38.52 | 38333 | 63734
4 | 14:09.60 | 4:57.30 | 63735 | 86039
5 | 19:07.15 | 4:49.33 | 86040 | 107747
6 | 23:56.48 | 5:03.63 | 107748 | 130535
7 | 29:00.36 | 3:15.71 | 130536 | 145231
8 | 32:16.32 | 4:42.68 | 145232 | 166449
9 | 36:59.25 | 4:16.66 | 166450 | 185715
10 | 41:16.16 | 4:55.47 | 185716 | 207887
11 | 46:11.63 | 5:29.73 | 207888 | 232635
12 | 51:41.61 | 6:46.28 | 232636 | 263113


Track 1

Filename C:\! UPLOAD\Grencso Collective - Mistery (1999) [FLAC] {KVB}\01 - Nyaresti szerenad.wav

Pre-gap length 0:00:02.00

Peak level 93.8 %
Track quality 100.0 %
Test CRC 073EAFD1
Copy CRC 073EAFD1
Accurately ripped (confidence 1) [BDF921DF]
Copy OK

Track 2

Filename C:\! UPLOAD\Grencso Collective - Mistery (1999) [FLAC] {KVB}\02 - Szeretni kell.wav

Pre-gap length 0:00:03.21

Peak level 94.8 %
Track quality 100.0 %
Test CRC 5060C322
Copy CRC 5060C322
Accurately ripped (confidence 1) [4FBD53AF]
Copy OK

Track 3

Filename C:\! UPLOAD\Grencso Collective - Mistery (1999) [FLAC] {KVB}\03 - Tuzpiros virag.wav

Pre-gap length 0:00:03.37

Peak level 40.9 %
Track quality 99.9 %
Test CRC AA5EA0A2
Copy CRC AA5EA0A2
Accurately ripped (confidence 1) [CEC306E6]
Copy OK

Track 4

Filename C:\! UPLOAD\Grencso Collective - Mistery (1999) [FLAC] {KVB}\04 - Mar nem haragszom rad.wav

Pre-gap length 0:00:02.46

Peak level 93.3 %
Track quality 100.0 %
Test CRC 765B266C
Copy CRC 765B266C
Accurately ripped (confidence 1) [A5A49F3D]
Copy OK

Track 5

Filename C:\! UPLOAD\Grencso Collective - Mistery (1999) [FLAC] {KVB}\05 - Rejtely.wav

Pre-gap length 0:00:03.28

Peak level 87.4 %
Track quality 100.0 %
Test CRC 216A8B4D
Copy CRC 216A8B4D
Accurately ripped (confidence 1) [7141C55D]
Copy OK

Track 6

Filename C:\! UPLOAD\Grencso Collective - Mistery (1999) [FLAC] {KVB}\06 - Piros tulipan.wav

Pre-gap length 0:00:02.86

Peak level 42.5 %
Track quality 99.9 %
Test CRC 25CA609B
Copy CRC 25CA609B
Accurately ripped (confidence 1) [E9554E4B]
Copy OK

Track 7

Filename C:\! UPLOAD\Grencso Collective - Mistery (1999) [FLAC] {KVB}\07 - Latod ez a szerelem.wav

Pre-gap length 0:00:02.53

Peak level 94.6 %
Track quality 100.0 %
Test CRC FAE0CFF5
Copy CRC FAE0CFF5
Accurately ripped (confidence 1) [EBF64BD9]
Copy OK

Track 8

Filename C:\! UPLOAD\Grencso Collective - Mistery (1999) [FLAC] {KVB}\08 - Jarom az utam.wav

Pre-gap length 0:00:02.49

Peak level 93.3 %
Track quality 99.9 %
Test CRC CD24421E
Copy CRC CD24421E
Accurately ripped (confidence 1) [97C36079]
Copy OK

Track 9

Filename C:\! UPLOAD\Grencso Collective - Mistery (1999) [FLAC] {KVB}\09 - Hosszu az a nap.wav

Pre-gap length 0:00:02.32

Peak level 93.2 %
Track quality 100.0 %
Test CRC 21632935
Copy CRC 21632935
Accurately ripped (confidence 1) [CF86EE4A]
Copy OK

Track 10

Filename C:\! UPLOAD\Grencso Collective - Mistery (1999) [FLAC] {KVB}\10 - Ott fogsz majd sirni.wav

Pre-gap length 0:00:03.17

Peak level 42.6 %
Track quality 100.0 %
Test CRC 385F0685
Copy CRC 385F0685
Accurately ripped (confidence 1) [9EBC78CE]
Copy OK

Track 11

Filename C:\! UPLOAD\Grencso Collective - Mistery (1999) [FLAC] {KVB}\11 - Tuzpiros virag 2.wav

Pre-gap length 0:00:02.86

Peak level 84.3 %
Track quality 100.0 %
Test CRC 13075316
Copy CRC 13075316
Accurately ripped (confidence 1) [5DAB801D]
Copy OK

Track 12

Filename C:\! UPLOAD\Grencso Collective - Mistery (1999) [FLAC] {KVB}\12 - Bocsanat, hogyha kerdem.wav

Pre-gap length 0:00:02.74

Peak level 93.5 %
Track quality 100.0 %
Test CRC 2D8E0C71
Copy CRC 2D8E0C71
Accurately ripped (confidence 1) [21B1E766]
Copy OK


All tracks accurately ripped

No errors occurred

End of status report


[CUETools log; Date: 12.02.2019 5:43:33; Version: 2.1.4]
[AccurateRip ID: 001932af-00eb5ade-970db40c] found.
Track [ CRC | V2 ] Status
01 [bdf921df|1f9335e0] (2+2/4) Accurately ripped
02 [4fbd53af|4434ff60] (2+2/4) Accurately ripped
03 [cec306e6|d63b645c] (2+2/4) Accurately ripped
04 [a5a49f3d|eb9e0de2] (2+2/4) Accurately ripped
05 [7141c55d|bd6b9c37] (2+2/4) Accurately ripped
06 [e9554e4b|6b73756f] (2+2/4) Accurately ripped
07 [ebf64bd9|dfa82458] (2+2/4) Accurately ripped
08 [97c36079|594f4202] (2+2/4) Accurately ripped
09 [cf86ee4a|356b4042] (2+2/4) Accurately ripped
10 [9ebc78ce|b7ff399b] (2+2/4) Accurately ripped
11 [5dab801d|fb77e5fb] (2+2/4) Accurately ripped
12 [21b1e766|7a5f1d6e] (2+2/4) Accurately ripped

Track Peak [ CRC32 ] [W/O NULL] [ LOG ]
– 94,8 [E8A185CA] [DF3DD8AB]
01 93,8 [073EAFD1] [BECD7B8E] CRC32
02 94,8 [5060C322] [E9A472F9] CRC32
03 40,9 [AA5EA0A2] [A9660EA5] CRC32
04 93,3 [765B266C] [99D7ACC1] CRC32
05 87,4 [216A8B4D] [6F2278BD] CRC32
06 42,5 [25CA609B] [9DA5B0ED] CRC32
07 94,6 [FAE0CFF5] [BB0FB6BF] CRC32
08 93,3 [CD24421E] [22726EC7] CRC32
09 93,2 [21632935] [0B4A38A4] CRC32
10 42,6 [385F0685] [760D9CAB] CRC32
11 84,3 [13075316] [09256217] CRC32
12 93,5 [2D8E0C71] [B1BA0E7B] CRC32


Grencso Collective - Mistery (2000)

All thanks go to the original releaser

Grencso Collective in my Blog

Download Grencso Collective - Mistery (2000):