Grief - Complete CD Discography (1992-2005, 7CD)

Posted By: Necromandus
Grief - Complete CD Discography (1992-2005, 7CD)

Grief - Complete CD Discography (1992-2005, 7CD)
EAC Rip | FLAC, IMG+CUE+LOG | 2.8 GB | MP3 CBR 320 Kbps | 1 GB | Complete HQ Scans | PNG -> 300 MB
Sludge/Doom | RAR 3% Rec. | Nitroflare.com

Grief was founded in 1991 by Disrupt guitarist Terry Savastano and drummer Randy Odierno (who later switched to bass and later again left to join Bane of Existence). They broke up in 2001 mainly due to drummer problems - something that was an ongoing problem for the band from the start. They also cited what they called a "hostile environment for doom metal bands". They reunited briefly in July 2005 to play a cluster of reunion shows.



Grief - Complete CD Discography (1992-2005, 7CD)

Grief - Dismal (1992)
FLAC, IMG+CUE+LOG | 360 MB | MP3 CBR 320 Kbps | 120 MB | PNG -> 40 MB
Label: F@ck Yoga Records #FY49 | RAR 3% Rec. | Nitroflare.com
… 2015, Remastered with 2 Bonus Tracks …

Pure filth fueled by mysanthropy and inner segregation has been immortalized on GRIEF's "dismal", a record recognized as a benchmark in extreme music. HEAVY riffs and damaged, painful shrieks spew thoughts of alienation and self-hatred; primitive drums and bass complement the despodent ambience. Truely a genre-defining release, available for the first time since it's original release in 1992. Featuring the original artwork, remastered for both vinyl and CD by Jack Control at ENORMOUS DOOR MASTERING and pressed on 45 rpm 12" for maximum results.
CD includes 2 bonus tracks originally appearing on the split 7" with DYSTOPIA.
Tracklist :

1. Rhinoceros - 7:23
2. Isolation - 3:52
3. Coma - 9:17
4. Shoot Me… (I'm Already Dead) - 1:10
5. Lifeless (Bonus Track) - 2:54
6. Fucked Upstairs (Bonus Track) - 4:20
7. Depression - 4:20
8. Virus - 2:53
9. Fleshpress - 4:05
10. The Drone - 2:51

Exact Audio Copy V1.1 from 23. June 2015

EAC extraction logfile from 24. February 2016, 19:58

Grief / Dismal (2015, FY49)

Used drive : PIONEER DVD-RW DVR-219L Adapter: 1 ID: 1

Read mode : Secure
Utilize accurate stream : Yes
Defeat audio cache : Yes
Make use of C2 pointers : No

Read offset correction : 6
Overread into Lead-In and Lead-Out : No
Fill up missing offset samples with silence : Yes
Delete leading and trailing silent blocks : No
Null samples used in CRC calculations : Yes
Used interface : Native Win32 interface for Win NT & 2000

Used output format : Internal WAV Routines
Sample format : 44.100 Hz; 16 Bit; Stereo


TOC of the extracted CD

Track | Start | Length | Start sector | End sector
––––––––––––––––––––––––––––-
1 | 0:00.00 | 7:23.05 | 0 | 33229
2 | 7:23.05 | 3:52.02 | 33230 | 50631
3 | 11:15.07 | 9:17.32 | 50632 | 92438
4 | 20:32.39 | 1:10.10 | 92439 | 97698
5 | 21:42.49 | 2:53.61 | 97699 | 110734
6 | 24:36.35 | 4:20.20 | 110735 | 130254
7 | 28:56.55 | 4:19.72 | 130255 | 149751
8 | 33:16.52 | 2:53.18 | 149752 | 162744
9 | 36:09.70 | 4:04.39 | 162745 | 181083
10 | 40:14.34 | 2:51.16 | 181084 | 193924


Range status and errors

Selected range

Filename D:\.by necromandus for avaxhome\Grief - Dismal (2015, FY49).wav

Peak level 100.0 %
Extraction speed 4.1 X
Range quality 100.0 %
Test CRC 79A12C5A
Copy CRC 79A12C5A
Copy OK

No errors occurred


AccurateRip summary

Track 1 not present in database
Track 2 not present in database
Track 3 not present in database
Track 4 not present in database
Track 5 not present in database
Track 6 not present in database
Track 7 not present in database
Track 8 not present in database
Track 9 not present in database
Track 10 not present in database

None of the tracks are present in the AccurateRip database

End of status report

–– CUETools DB Plugin V2.1.6

[CTDB TOCID: za94wbIdORYeddEP3zM5htB3rvo-] disk not present in database
Submit result: za94wbIdORYeddEP3zM5htB3rvo- has been uploaded


==== Log checksum 803F8AA1152CF89B574214600A08AC3C3CA0AF79200E519A36D9620FE7830856 ====

• Jeff - Vocals
• Jay - Guitars
• Terry - Guitars
• Randy - Bass
• Pete - Drums

Tracks 1-4 from Dismal 12" EP
Tracks 5-6 from Grief/Dystopia 7" Split EP
Tracks 7-8 from Depression 12" EP

All tracks recorded at Headroom Studio, Boston, Massachusetts.
Produced and engineered by Bill T. Miller & Grief.
Remastered by Jack Control at Enormous Door Mastering
Licensed by Grievance Records



Grief - Complete CD Discography (1992-2005, 7CD)

Grief - Come To Grief (1994)
FLAC, IMG+CUE+LOG | 450 MB | MP3 CBR 320 Kbps | 160 MB | PNG -> 60 MB
Label: Willowtip ‎#WT-83 | RAR 3% Rec. | Nitroflare.com
… 2010, Re-issue with bonus track …

Come to Grief opens with a chaotic few seconds of feedback, before the track ‘Earthworm’ thrusts you into the aggressive riffing that is the spine of this album. The heaviness of Grief’s music is astounding; the controlled aggression that comes with every mind crushing riff is the crux of Come to Grief. Sludge doom from Boston, Grief have been around for the most part of the last two decades, albeit a five year hiatus beginning in 2001. Come to Grief is their second full length, and is an album of various metaphors; a thousand hammers smashing in your face, a multiple car pileup on your face, or simply having the shit beaten out of you for not listening to this album. The opening feedback gives a sign of things to come with Come to Grief: this is sludge at its finest. Dirty, punishing riffs, smothered in a very tolerable fuzziness that, rather than washing out the sound, gives it a delectable gritty edge. However, rather than simply delivering a plethora of riffs, Grief add to the diversity with occasional ‘wheeyous’ and similarly needless hooks to the guitar lines. Moments like the last minute of ‘World of Hurt’ are just fantastic in topping off the rough excess of face hammering; a heightened tempo and a sneer of belligerence in what is an infectiously groovy riff closes the track sublimely, and such scornfully awesome moments are abundant throughout the album’s hour length. Not diverging far from the aforementioned sound, the vocals are as coarse and granular as shredded wheat. Whether they’re dirty screams or vomited gutturals, such an intense and passionate performance brings the hatred filled lyrics to life. Lines like ‘Only one thing comes to mind / When I look into your eyes / I think of all those times / All I did was despise you / I hate you’ are so fervently hostile and antagonistic that you can’t help feeling like you want to go and beat the shit out of some pussy Cradle of Filth fans. The lyrical matter of the album does not stray far from abhorrence, spite and hatred; track titles such as ‘World of Hurt’, ‘I Hate You’ and ‘Fed Up’ pretty much speak for themselves. Come to Grief rules. If you haven’t heard it, do it now. The album ends with the line ‘I’ll screw you all in the end’, and yes, he was talking about you.
Tracklist :

1. Earthworm - 9:51
2. Hate Grows Stronger - 8:23
3. World Of Hurt - 5:02
4. I Hate You - 6:11
5. Ruined - 4:26
6. Fed Up - 6:29
7. Stricken - 6:00
8. Come To Grief - 8:11
9. Bury The Dead (Bonus Track) - 5:00

Exact Audio Copy V1.1 from 23. June 2015

EAC extraction logfile from 9. March 2016, 11:58

Grief / Come To Grief (2010, Willowtip WT-83)

Used drive : TSSTcorpCDDVDW SH-S223F Adapter: 1 ID: 0

Read mode : Secure
Utilize accurate stream : Yes
Defeat audio cache : Yes
Make use of C2 pointers : No

Read offset correction : 6
Overread into Lead-In and Lead-Out : No
Fill up missing offset samples with silence : Yes
Delete leading and trailing silent blocks : No
Null samples used in CRC calculations : Yes
Used interface : Native Win32 interface for Win NT & 2000

Used output format : Internal WAV Routines
Sample format : 44.100 Hz; 16 Bit; Stereo


TOC of the extracted CD

Track | Start | Length | Start sector | End sector
––––––––––––––––––––––––––––-
1 | 0:00.00 | 9:50.45 | 0 | 44294
2 | 9:50.45 | 8:23.12 | 44295 | 82031
3 | 18:13.57 | 5:02.25 | 82032 | 104706
4 | 23:16.07 | 6:10.50 | 104707 | 132506
5 | 29:26.57 | 4:25.50 | 132507 | 152431
6 | 33:52.32 | 6:28.50 | 152432 | 181581
7 | 40:21.07 | 6:00.03 | 181582 | 208584
8 | 46:21.10 | 8:10.65 | 208585 | 245399
9 | 54:32.00 | 5:00.36 | 245400 | 267935


Range status and errors

Selected range

Filename Z:\[MeTaLMaDNeSS.TeaM]\Grief - Come To Grief (2010, Willowtip WT-83).wav

Peak level 100.0 %
Extraction speed 7.7 X
Range quality 100.0 %
Test CRC 55281997
Copy CRC 55281997
Copy OK

No errors occurred


AccurateRip summary

Track 1 accurately ripped (confidence 2) [C4E5254D] (AR v2)
Track 2 accurately ripped (confidence 2) [E876D081] (AR v2)
Track 3 accurately ripped (confidence 2) [E5DEDB1A] (AR v2)
Track 4 accurately ripped (confidence 2) [45F25676] (AR v2)
Track 5 accurately ripped (confidence 2) [9BD29724] (AR v2)
Track 6 accurately ripped (confidence 2) [CDCBE185] (AR v2)
Track 7 accurately ripped (confidence 2) [C302851D] (AR v2)
Track 8 accurately ripped (confidence 2) [5D0254A1] (AR v2)
Track 9 accurately ripped (confidence 2) [BD81E44D] (AR v2)

All tracks accurately ripped

End of status report

–– CUETools DB Plugin V2.1.6

[CTDB TOCID: z2tFGU0kKb9XNaRLYoV3B3DVC08-] found
Submit result: z2tFGU0kKb9XNaRLYoV3B3DVC08- has been confirmed
Track | CTDB Status
1 | (4/4) Accurately ripped
2 | (4/4) Accurately ripped
3 | (4/4) Accurately ripped
4 | (4/4) Accurately ripped
5 | (4/4) Accurately ripped
6 | (4/4) Accurately ripped
7 | (4/4) Accurately ripped
8 | (4/4) Accurately ripped
9 | (4/4) Accurately ripped


==== Log checksum 2E596970C106522391FFEADD8E6B28677B635D34A4C73CC32A76444B0B87D7B4 ====

• Jeff Hayward - Guitars, vocals
• Terry Savastano - Guitars
• Randy Odierno - Bass
• Rick Johnson - Drums

Engineered and produced by Bill T. Miller
Recorded August 6-7 and 19-21 1994 at the Lanes, Allston, Mass.
Digital editing at Platinum Sound, Jamaica Plain, Mass. Aug. 26 1994.



Grief - Complete CD Discography (1992-2005, 7CD)

Grief - Miserably Ever After (1996)
FLAC, IMG+CUE+LOG | 330 MB | MP3 CBR 320 Kbps | 110 MB | PNG -> 30 MB
Label: Pessimiser/Theologian Records #T-50 | RAR 3% Rec. | Nitroflare.com

I have mixed feelings about doom metal, feelings that I expained in a semi-recent post about extinct Bay Area doomsters Noothgrush. Some of it is good, like the aforementioned Noothgrush or the whale-heavy Ahab – But for every decent doom band there are a dozen shitty ones, doing nothing but playing standard rock riffs over boring beats at a quarter the speed. Grief is the opposite of these bands. Grief were from Boston, and were the first "real" doom band I ever heard. They are still my favorite. I (kinda) wrote up their 1994 album Come To Grief here, but in my opinion Miserably Ever After is their finest work. It's a sludgy, hateful, pummeling hour of pure sonic catharsis. Give it to your children.
Tracklist :

1. One Of Those Days - 3:23
2. Low Life - 7:24
3. Nuisance - 5:54
4. Angry Man - 4:53
5. Miserably Ever After - 9:23
6. Straight Edge Closed Mind - 6:20
7. Why Should I Care - 6:38
8. I Hate The Human Race - 2:30
9. Trust - 10:55

Exact Audio Copy V1.1 from 23. June 2015

EAC extraction logfile from 9. March 2016, 12:53

Grief / Miserably Ever After

Used drive : TSSTcorpCDDVDW SH-S223F Adapter: 1 ID: 0

Read mode : Secure
Utilize accurate stream : Yes
Defeat audio cache : Yes
Make use of C2 pointers : No

Read offset correction : 6
Overread into Lead-In and Lead-Out : No
Fill up missing offset samples with silence : Yes
Delete leading and trailing silent blocks : No
Null samples used in CRC calculations : Yes
Used interface : Native Win32 interface for Win NT & 2000

Used output format : Internal WAV Routines
Sample format : 44.100 Hz; 16 Bit; Stereo


TOC of the extracted CD

Track | Start | Length | Start sector | End sector
––––––––––––––––––––––––––––-
1 | 0:00.00 | 3:22.45 | 0 | 15194
2 | 3:22.45 | 7:24.07 | 15195 | 48501
3 | 10:46.52 | 5:53.63 | 48502 | 75039
4 | 16:40.40 | 4:53.12 | 75040 | 97026
5 | 21:33.52 | 9:22.65 | 97027 | 139241
6 | 30:56.42 | 6:19.63 | 139242 | 167729
7 | 37:16.30 | 6:38.30 | 167730 | 197609
8 | 43:54.60 | 2:30.25 | 197610 | 208884
9 | 46:25.10 | 10:55.17 | 208885 | 258026


Range status and errors

Selected range

Filename Z:\[MeTaLMaDNeSS.TeaM]\Grief - Miserably Ever After.wav

Peak level 98.8 %
Extraction speed 3.3 X
Range quality 100.0 %
Test CRC C7690B67
Copy CRC C7690B67
Copy OK

No errors occurred


AccurateRip summary

Track 1 accurately ripped (confidence 1) [92D0FF66] (AR v2)
Track 2 accurately ripped (confidence 1) [2D229A72] (AR v2)
Track 3 accurately ripped (confidence 1) [8549AF60] (AR v2)
Track 4 accurately ripped (confidence 1) [9512565D] (AR v2)
Track 5 accurately ripped (confidence 1) [DF2F8ED1] (AR v2)
Track 6 accurately ripped (confidence 1) [6EB0CCF2] (AR v2)
Track 7 accurately ripped (confidence 1) [8E39A109] (AR v2)
Track 8 accurately ripped (confidence 1) [D5F45104] (AR v2)
Track 9 accurately ripped (confidence 1) [322457E7] (AR v2)

All tracks accurately ripped

End of status report

–– CUETools DB Plugin V2.1.6

[CTDB TOCID: _qOqIgtuhnyqKXtK0mfhrucUFso-] found
Submit result: _qOqIgtuhnyqKXtK0mfhrucUFso- has been confirmed
Track | CTDB Status
1 | (3/3) Accurately ripped
2 | (3/3) Accurately ripped
3 | (3/3) Accurately ripped
4 | (3/3) Accurately ripped
5 | (3/3) Accurately ripped
6 | (3/3) Accurately ripped
7 | (3/3) Accurately ripped
8 | (3/3) Accurately ripped
9 | (3/3) Accurately ripped


==== Log checksum 2AD6616AF3D9B73B34C6FCEB2E7484656AD44C7867550AFA78DBD964EB8C5B43 ====

• Jeff Hayward - guitar, lead Vocals
• John Heidenrich - guitar, vocals
• Eric C. Harrison - bass, b/up Vocals
• Ray McCaffrey - drums

Recorded Spring 1996 at Straight Jacket Studios
Produced by Bill T. Miller and Grief.
Basic Trax Assistant Engineer: Rico Petrillo.



Grief - Complete CD Discography (1992-2005, 7CD)

Grief - Torso (1998)
FLAC, IMG+CUE+LOG | 450 MB | MP3 CBR 320 Kbps | 160 MB | PNG -> 40 MB
Label: Pessimiser/Theologian Records #Pess-23 | RAR 3% Rec. | Nitroflare.com

In spite of persistent rumors that they are calling it quits, GRIEF are back with another full length masterpiece of slowcore / doomsludge. You'll be scooping tar out of your speakers for weeks after listening to this puppy. On "Torso" GRIEF have taken the the best elements of their two previous full length releases and combined them. They have the sharper focus and better song writing found on their last album but have recaptured the raw and plodding forcefulness of their debut. As one of the premiere bands in their genre there are very high expectations every time they set foot in the studio and on this record, as always, they deliver. Heavier than most metal, more extreme than most hardcore, and slower than most baseball games…. what more could you ask for?
Tracklist :

1. I Hate Lucy - 7:26
2. Polluted - 9:04
3. Amorphous - 12:03
4. Life Can Be… - 8:22
5. To Serve & Neglect - 10:28
6. Beyond Waste - 7:43
7. Tar - 8:13

Exact Audio Copy V1.1 from 23. June 2015

EAC extraction logfile from 10. March 2016, 10:13

Grief / Torso

Used drive : TSSTcorpCDDVDW SH-S223F Adapter: 1 ID: 0

Read mode : Secure
Utilize accurate stream : Yes
Defeat audio cache : Yes
Make use of C2 pointers : No

Read offset correction : 6
Overread into Lead-In and Lead-Out : No
Fill up missing offset samples with silence : Yes
Delete leading and trailing silent blocks : No
Null samples used in CRC calculations : Yes
Used interface : Native Win32 interface for Win NT & 2000

Used output format : Internal WAV Routines
Sample format : 44.100 Hz; 16 Bit; Stereo


TOC of the extracted CD

Track | Start | Length | Start sector | End sector
––––––––––––––––––––––––––––-
1 | 0:00.00 | 7:26.07 | 0 | 33456
2 | 7:26.07 | 9:03.38 | 33457 | 74219
3 | 16:29.45 | 12:03.30 | 74220 | 128474
4 | 28:33.00 | 8:22.34 | 128475 | 166158
5 | 36:55.34 | 10:28.08 | 166159 | 213266
6 | 47:23.42 | 7:42.60 | 213267 | 247976
7 | 55:06.27 | 8:13.35 | 247977 | 284986


Range status and errors

Selected range

Filename Z:\[MeTaLMaDNeSS.TeaM]\Grief - Torso.wav

Peak level 93.9 %
Extraction speed 3.3 X
Range quality 100.0 %
Test CRC C41DD5D8
Copy CRC C41DD5D8
Copy OK

No errors occurred


AccurateRip summary

Track 1 accurately ripped (confidence 2) [D87523E2] (AR v1)
Track 2 accurately ripped (confidence 2) [AE97A0BA] (AR v1)
Track 3 accurately ripped (confidence 2) [FE1A3097] (AR v1)
Track 4 accurately ripped (confidence 2) [027EE425] (AR v1)
Track 5 accurately ripped (confidence 2) [4F4F3B23] (AR v1)
Track 6 accurately ripped (confidence 2) [0DFE94AD] (AR v1)
Track 7 accurately ripped (confidence 2) [269BCE37] (AR v1)

All tracks accurately ripped

End of status report

–– CUETools DB Plugin V2.1.6

[CTDB TOCID: yukXk0540uClhJwS0hVOzuqWGHA-] found
Submit result: yukXk0540uClhJwS0hVOzuqWGHA- has been confirmed
Track | CTDB Status
1 | (5/5) Accurately ripped
2 | (5/5) Accurately ripped
3 | (5/5) Accurately ripped
4 | (5/5) Accurately ripped
5 | (5/5) Accurately ripped
6 | (5/5) Accurately ripped
7 | (5/5) Accurately ripped


==== Log checksum 97329B39D9C93A7A240BCBEB41E4FCE4DF463CD8907EF07CF515A6E7A0814F78 ====

• Jeff Hayward - guitars, vocals
• Eric Harrison - bass, vocals
• Randy Odierno - drums
• Terry Savastano - guitars

Co-Produced by Grief and BTM.
Recroded at October 1997
Engineered by Bill T. Miller at Supersonic Studios.



Grief - Complete CD Discography (1992-2005, 7CD)

Grief - …And Man Will Become The Hunted (2000)
FLAC, IMG+CUE+LOG | 400 MB | MP3 CBR 320 Kbps | 130 MB | PNG -> 40 MB
Label: Pessimiser Records #PESS-33 | RAR 3% Rec. | Nitroflare.com

It is with great anticipation that I await each and every release by GRIEF; one of the few bands to have successfully tapped into the cosmic aura left by the mighty BLACK SABBATH. An aura that surrounds and permeates all extreme music but somehow still remains elusive to most bands plying the trade. On this new CD the band once again proves that sludge is truly a pliable genre that can be molded and tweaked into countless variations. It never ceases to amaze me that although every GRIEF album is built upon the same foundation and has the same overall vibe they always introduce unique elements that result in new and diverse dynamics. One of the strongest of those dynamics on "…And Man Will Become The Hunted" is the pagan celebration of nature over mankind. Everything from CD's title to the Dionysus worship in the artwork to the loathing filled lyrics to the nature samples in the music is in alignment with the misanthropic world view. Although nothing captures the theme quite as effectively as the CDs outro which shows the band stepping away from their rugged metal and playing an acoustic number complete with very non-GRIEF like instruments including congo drums, a piano, and a rainstick. Without question "…And Man Will Become The Hunted" is a worthy edition to the GRIEF opus, which is destined to be legendary.
Tracklist :

1. Predator - 6:29
2. I Won't Come Back - 5:26
3. If The World Was Flat - 6:16
4. Ostrich - 4:24
5. Hurricane Jello - 7:36
6. Down In The Dumps Again - 3:42
7. No Escape - 4:13
8. When Rotten Ideas Break - 12:27

Exact Audio Copy V1.1 from 23. June 2015

EAC extraction logfile from 10. March 2016, 10:32

Grief / …And Man Will Become The Hunted

Used drive : TSSTcorpCDDVDW SH-S223F Adapter: 1 ID: 0

Read mode : Secure
Utilize accurate stream : Yes
Defeat audio cache : Yes
Make use of C2 pointers : No

Read offset correction : 6
Overread into Lead-In and Lead-Out : No
Fill up missing offset samples with silence : Yes
Delete leading and trailing silent blocks : No
Null samples used in CRC calculations : Yes
Used interface : Native Win32 interface for Win NT & 2000

Used output format : Internal WAV Routines
Sample format : 44.100 Hz; 16 Bit; Stereo


TOC of the extracted CD

Track | Start | Length | Start sector | End sector
––––––––––––––––––––––––––––-
1 | 0:00.00 | 6:29.05 | 0 | 29179
2 | 6:29.05 | 5:26.20 | 29180 | 53649
3 | 11:55.25 | 6:16.30 | 53650 | 81879
4 | 18:11.55 | 4:24.02 | 81880 | 101681
5 | 22:35.57 | 7:35.53 | 101682 | 135859
6 | 30:11.35 | 3:41.60 | 135860 | 152494
7 | 33:53.20 | 4:13.37 | 152495 | 171506
8 | 38:06.57 | 12:26.63 | 171507 | 227519


Range status and errors

Selected range

Filename Z:\[MeTaLMaDNeSS.TeaM]\Grief - …And Man Will Become The Hunted.wav

Peak level 97.7 %
Extraction speed 7.0 X
Range quality 100.0 %
Test CRC C726CA92
Copy CRC C726CA92
Copy OK

No errors occurred


AccurateRip summary

Track 1 accurately ripped (confidence 2) [FD43BEB5] (AR v1)
Track 2 accurately ripped (confidence 2) [905835E8] (AR v1)
Track 3 accurately ripped (confidence 2) [A0FE1EB2] (AR v1)
Track 4 accurately ripped (confidence 2) [7112B083] (AR v1)
Track 5 accurately ripped (confidence 2) [8E037701] (AR v1)
Track 6 accurately ripped (confidence 2) [8BA6F0E0] (AR v1)
Track 7 accurately ripped (confidence 2) [BD704ECE] (AR v1)
Track 8 accurately ripped (confidence 2) [55D289F4] (AR v1)

All tracks accurately ripped

End of status report

–– CUETools DB Plugin V2.1.6

[CTDB TOCID: f9E3o1Qfr2PfImQJPYI7udno3fE-] found
Submit result: f9E3o1Qfr2PfImQJPYI7udno3fE- has been confirmed
Track | CTDB Status
1 | (4/4) Accurately ripped
2 | (4/4) Accurately ripped
3 | (4/4) Accurately ripped
4 | (4/4) Accurately ripped
5 | (4/4) Accurately ripped
6 | (4/4) Accurately ripped
7 | (4/4) Accurately ripped
8 | (4/4) Accurately ripped


==== Log checksum 532CF8FCD39E79A8CAD937A536034A1F4D65D7B067761CBAF52A70F0341ACFC3 ====

• Jeff Hayward - vocals & guitar
• Terry Savastano - guitar
• Eric Harrison - bass, vocals
• Chuck Conlon - drums

Produced by Grief and Bill T. Miller
Recroded by Bill T. Miller at Supersonic Studios, July 1999



Grief - Complete CD Discography (1992-2005, 7CD)

Grief - Turbulent Times. Unreleased And Out-Of-Print Material (2002)
FLAC, IMG+CUE+LOG | 530 MB | MP3 CBR 320 Kbps | 180 MB | PNG -> 60 MB
Label: Southern Lord #SUNN22 | RAR 3% Rec. | Nitroflare.com

This band would have been proud to wear the title of "Slowest Band In The World". This was my first taste of Grief. I had been hearing about them for years, but never got around to getting one of their albums. Although I had heard and read that their music was "utterly depressing", "heavy beyond words", and "slooooowww", I was not prepared for the impact this music left on me. 67 minutes of pure DOOM/death Metal. It was as if every last bit of well-being, hope, and contentment was drained completely, and replaced by the bitterest, saddest, most hopeless feelings…. and I loved it! They say it takes a sad song to make a sad person feel better. Very true, however Grief really does push the depression quite far. Musically you can say they sound like eyehategod, Paramaecium, and early Morgion combined and HEAVILY sedated. There aren't any flutes, violins, operatic vocals, Shakespearean lyrics or keyboards however. The sound is very raw and unbelievably heavy. Just pure, raw, unadorned DOOM. A big influence on newer bands like Burning Witch and Khanate. Songs move slower than snails, but there are brief faster, more uptempo Celtic Frost/Black Sabbath-ish segments here and there that take you by suprise. Check this out if you want your Metal slow and depressing.
Tracklist :

1. Lifeless (From 7" Split with Dystopia, 1993) - 2:58
2. Fucked Upstairs (From 7" Split with Dystopia, 1993) - 4:24
3. Falling Apart (From 7" Split with 13, 1993) - 6:43
4. Earthworm (Remixed, from "Come To Grief" CD, 1994) - 8:21
5. Depression (Unreleased "Suicide Version")- 9:03
6. I Hate You (From "Come To Grief" CD/Compilation "World Of Hurt", 1994) - 5:12
7. Pessimiser (From 7" Split with 16, 1995) - 5:49
8. Green Vegetable Matter (From 10" Split with Soilent Green, 1995) - 8:38
9. No Choice (From 7" Split with Suppression, 1995) - 4:23
10. My Dilemma (From 7" Split with Corrupted, 1996) - 6:18
11. Bored (From 10" Split With 16, 1997) - 6:04

Exact Audio Copy V1.1 from 23. June 2015

EAC extraction logfile from 11. March 2016, 10:00

Grief / Turbulent Times (Unreleased And Out-Of-Print Material)

Used drive : TSSTcorpCDDVDW SH-S223F Adapter: 1 ID: 0

Read mode : Secure
Utilize accurate stream : Yes
Defeat audio cache : Yes
Make use of C2 pointers : No

Read offset correction : 6
Overread into Lead-In and Lead-Out : No
Fill up missing offset samples with silence : Yes
Delete leading and trailing silent blocks : No
Null samples used in CRC calculations : Yes
Used interface : Native Win32 interface for Win NT & 2000

Used output format : Internal WAV Routines
Sample format : 44.100 Hz; 16 Bit; Stereo


TOC of the extracted CD

Track | Start | Length | Start sector | End sector
––––––––––––––––––––––––––––-
1 | 0:00.00 | 2:58.05 | 0 | 13354
2 | 2:58.05 | 4:24.16 | 13355 | 33170
3 | 7:22.21 | 6:42.40 | 33171 | 63360
4 | 14:04.61 | 8:20.43 | 63361 | 100903
5 | 22:25.29 | 9:03.18 | 100904 | 141646
6 | 31:28.47 | 5:12.33 | 141647 | 165079
7 | 36:41.05 | 5:49.32 | 165080 | 191286
8 | 42:30.37 | 8:37.71 | 191287 | 230132
9 | 51:08.33 | 4:23.13 | 230133 | 249870
10 | 55:31.46 | 6:17.60 | 249871 | 278205
11 | 61:49.31 | 6:04.18 | 278206 | 305523


Range status and errors

Selected range

Filename Z:\[MeTaLMaDNeSS.TeaM]\Grief - Turbulent Times (Unreleased And Out-Of-Print Material).wav

Peak level 100.0 %
Extraction speed 3.0 X
Range quality 99.9 %
Test CRC 7523AA28
Copy CRC 7523AA28
Copy OK

No errors occurred


AccurateRip summary

Track 1 cannot be verified as accurate (confidence 2) [48B58609], AccurateRip returned [5D157BD1] (AR v2)
Track 2 cannot be verified as accurate (confidence 2) [9F8165BD], AccurateRip returned [1B8DB7FE] (AR v2)
Track 3 cannot be verified as accurate (confidence 2) [A40710BF], AccurateRip returned [206AFE1C] (AR v2)
Track 4 cannot be verified as accurate (confidence 2) [0224DD10], AccurateRip returned [FA96127D] (AR v2)
Track 5 cannot be verified as accurate (confidence 2) [9DDE127B], AccurateRip returned [A6453706] (AR v2)
Track 6 cannot be verified as accurate (confidence 2) [BF74D348], AccurateRip returned [73486E49] (AR v2)
Track 7 cannot be verified as accurate (confidence 2) [02EE9B21], AccurateRip returned [66CBDCF5] (AR v2)
Track 8 cannot be verified as accurate (confidence 2) [777049AE], AccurateRip returned [355E8F4D] (AR v2)
Track 9 cannot be verified as accurate (confidence 2) [DDD7B27A], AccurateRip returned [6E86A9D5] (AR v2)
Track 10 cannot be verified as accurate (confidence 2) [C9771DDA], AccurateRip returned [D806587A] (AR v2)
Track 11 cannot be verified as accurate (confidence 2) [219DB2F6], AccurateRip returned [E8900F1E] (AR v2)

No tracks could be verified as accurate
You may have a different pressing from the one(s) in the database

End of status report

–– CUETools DB Plugin V2.1.6

[CTDB TOCID: iTg8zHqj9R9Ux5J1DOVjBv12Xns-] found
Submit result: iTg8zHqj9R9Ux5J1DOVjBv12Xns- has been confirmed
Track | CTDB Status
1 | (5/5) Accurately ripped
2 | (5/5) Accurately ripped
3 | (5/5) Accurately ripped
4 | (5/5) Accurately ripped
5 | (5/5) Accurately ripped
6 | (5/5) Accurately ripped
7 | (5/5) Accurately ripped
8 | (5/5) Accurately ripped
9 | (5/5) Accurately ripped
10 | (5/5) Accurately ripped
11 | (5/5) Accurately ripped


==== Log checksum 4C50903850F71D5E8276642CD7DFCE5F5FB48BD0ABE6026A9C40848C96D5C382 ====

• Jeff Hayward - Vocals, Guitar (tracks: 6, 10, 11)
• Jay Stiles - Guitar (tracks: 1 to 5)
• Steve Nelson - Guitar (tracks: 7 to 9)
• Eric Harrison - Bass (tracks: 11)
• Randy Odierno - Bass (tracks: 1 to 10)
• Peter Donovan - Drums (tracks: 1 to 5)
• Randy Odierno - Drums (tracks: 6, 11)
• Rick Johnson - Drums (tracks: 7 to 10)

This release is subtitled "Unreleased and Out-Of-Print Material".
All tracks recorded at Headroom Studios 1992-1996, except track 11, which was recorded at Supersonic Studios, October 1997.
Track 4 and 5 remixed September 2002.
Track 1 also appeared as bonus track on the German CD release of the album "Dismal" on Common Cause Records.



Grief - Complete CD Discography (1992-2005, 7CD)

Grief - Alive (2005)
FLAC, IMG+CUE+LOG | 330 MB | MP3 CBR 320 Kbps | 110 MB | PNG -> 30 MB
Label: Southern Lord #SUNN 59 | RAR 3% Rec. | Nitroflare.com

Bostons heaviest band ever spawned, Grief, were criminally underrated during their existence in the Nineties, it’s extreme redemption that now the band has reformed to destroy once again! Their undeniable influence can be heard in current groups like Sunn 0))), Eyehategod, Unearthly Trance, Khanate, Electric Wizard etc. This limited edtion CD effectively captures Grief at their best - recorded in their hometown of Boston in 2005 with a return to the eve of behemoth, slower than thou riffing and mammoth doom metal from one of the pioneers of the genre.
Tracklist :

1. One Of Those Days - 4:05
2. Earthworm - 9:50
3. World Of Hurt - 5:21
4. I Hate The Human Race - 3:17
5. Polluted - 9:19
6. Ruined - 4:18
7. Angry Man - 4:37

Exact Audio Copy V1.1 from 23. June 2015

EAC extraction logfile from 11. March 2016, 10:41

Grief / Alive

Used drive : TSSTcorpCDDVDW SH-S223F Adapter: 1 ID: 0

Read mode : Secure
Utilize accurate stream : Yes
Defeat audio cache : Yes
Make use of C2 pointers : No

Read offset correction : 6
Overread into Lead-In and Lead-Out : No
Fill up missing offset samples with silence : Yes
Delete leading and trailing silent blocks : No
Null samples used in CRC calculations : Yes
Used interface : Native Win32 interface for Win NT & 2000

Used output format : Internal WAV Routines
Sample format : 44.100 Hz; 16 Bit; Stereo


TOC of the extracted CD

Track | Start | Length | Start sector | End sector
––––––––––––––––––––––––––––-
1 | 0:00.00 | 4:05.09 | 0 | 18383
2 | 4:05.09 | 9:50.20 | 18384 | 62653
3 | 13:55.29 | 5:21.37 | 62654 | 86765
4 | 19:16.66 | 3:17.16 | 86766 | 101556
5 | 22:34.07 | 9:18.58 | 101557 | 143464
6 | 31:52.65 | 4:17.50 | 143465 | 162789
7 | 36:10.40 | 4:36.66 | 162790 | 183555


Range status and errors

Selected range

Filename Z:\[MeTaLMaDNeSS.TeaM]\Grief - Alive.wav

Peak level 100.0 %
Extraction speed 3.2 X
Range quality 100.0 %
Test CRC B52FAFFA
Copy CRC B52FAFFA
Copy OK

No errors occurred


AccurateRip summary

Track 1 accurately ripped (confidence 1) [57DE152F] (AR v2)
Track 2 accurately ripped (confidence 1) [9322CAC3] (AR v2)
Track 3 accurately ripped (confidence 1) [CE9D7FA8] (AR v2)
Track 4 accurately ripped (confidence 1) [CD2DC0D6] (AR v2)
Track 5 accurately ripped (confidence 1) [CACE8129] (AR v2)
Track 6 accurately ripped (confidence 1) [62B989EC] (AR v2)
Track 7 accurately ripped (confidence 1) [DBC2CE4C] (AR v2)

All tracks accurately ripped

End of status report

–– CUETools DB Plugin V2.1.6

[CTDB TOCID: 3DNyt4ppRIbPPjEp_uRJcpa2ju4-] found
Submit result: 3DNyt4ppRIbPPjEp_uRJcpa2ju4- has been confirmed
Track | CTDB Status
1 | (3/3) Accurately ripped
2 | (3/3) Accurately ripped
3 | (3/3) Accurately ripped
4 | (3/3) Accurately ripped
5 | (3/3) Accurately ripped
6 | (3/3) Accurately ripped
7 | (3/3) Accurately ripped


==== Log checksum EE459F79DCF917C4AE22203AB88570D2A3C7ACA5BB80278C7598451D4768E36C ====

• John Heidenrich - guitar, backing vocal
• Jeff Hayward - vocals & guitar
• Eric Harrison - bass
• Rich Johnson - drums

Limited Edition, 2000 copy only
All Songs by Grief, except "Angry Man", written by SAINT VITUS
Recorded Live in Boston 2005
Artwork by Eric C.Harrison


Grief - Dismal (1992)
Lossless (FLAC)* | All Covers (PNG) | Lossy HQ (320 Kbps CBR)

Grief - Come To Grief (1994)
Lossless (FLAC)* | All Covers (PNG) | Lossy HQ (320 Kbps CBR)

Grief - Miserably Ever After (1996)
Lossless (FLAC)* | All Covers (PNG) | Lossy HQ (320 Kbps CBR)

Grief - Torso (1998)
Lossless (FLAC)* | All Covers (PNG) | Lossy HQ (320 Kbps CBR)

Grief - …And Man Will Become The Hunted (2000)
Lossless (FLAC)* | All Covers (PNG) | Lossy HQ (320 Kbps CBR)

Grief - Turbulent Times. Unreleased And Out-Of-Print Material (2002)
Lossless (FLAC)* | All Covers (PNG) | Lossy HQ (320 Kbps CBR)

Grief - Alive (2005)
Lossless (FLAC)* | All Covers (PNG) | Lossy HQ (320 Kbps CBR)

* Original CD -> EAC image, embedded cuesheet & more, foobar2000 ready, etc.
Please, do not write these links at any web pages. Enjoy & keep the files alive!