Subcategories

Griff - Griff (2004)

Posted By: v3122
Griff - Griff (2004)

Griff - Griff (2004)
EAC | Flac(Image) + Cue + Log & iPod M4A(Tracks) & MP3 CBR 320Kbps
Appel Records, APR1304 | ~ 330 or 333 or 119 Mb | Scans Included
Belgian Folk

Griff might be one of the musician’s main bands, they are involved in many other musical projects. Remi is part of Minuit Guibolles and is at the start of new projects including a duo with a Portuguese accordionist and Moroccan musicians and he is more and more attracted by the art of singing. Raphaël plays Gaelic/Scandinavian music in Northern Lights, cooperates with a Siberian musician in Nadisuna and plays traditional Italian music in a project called Muntagna Nera by the Graindelavoix ensemble. To just name a few of his projects. Both feel attracted to search new paths in music, from early music to avant-garde but also love following the traditional roots.

It is Remi who got the idea of starting a bagpipe project, he thinks that the music played on the instrument is often a bit boring and predictable. He told Raphaël and founding member Birgit that within a year he wanted to perform at the Dranouter festival with an exciting bagpipe project. It took them a year longer, but they succeeded. They started as a sextet, three bagpipes and three backing musicians. The idea of forming a trio besides the sextet came to mind in a period a few musicians left the band. Earlier Birgit, Remi and Raphaël performed in Italy as a trio because the other musicians had a delayed flight. The challenge of performing as a trio is to create a full, rich sound on bagpipes, vocals and occasionally some percussion, only. Not just playing a few nice, familiar melodies, but explore the possibilities of the instrument. In their own words, they found a way to combine traditional/early music with modern sounding arrangements and compositions.

After finding new musicians, the band continues both as a trio and a sextet. Since this new start in 2008 they play a new repertoire with own compositions and new arrangements of traditional pieces. When I ask about the basic idea behind the Griff music of today, Remi thinks it a difficult question. Remi: ‘I see our music today as a kind of floating island. No solid ground, but moving and always ready to change directions. I can’t name it without getting the feeling to lock myself in. We make music ourselves and don’t want others to interfere. It’s the music of three, or six, musicians with their personal experience, their moods and dreams.’ Griff works in an organic way, one of the musicians brings in an idea or a melody and from there they start experimenting and see what atmosphere suits best. If all involved like the idea they start working more seriously and a new song arises. Often the bagpipe players and the other musicians work separately on their parts. At the end they bring their ideas together and a new piece is born.

~ folkworld
Griff - Griff (2004):

Griff - Griff (2004)

Tracklist:

01. Carnaval
02. Rasta Pizza
03. Fils du Roi
04. Lazâr/An Dro Tortue
05. Trolska
06. A la Jolie Fille
07. Leksand
08. Bojyrlig
09. Marivonig An Dorduff
10. Aderyn Du
11. Mladja
12. Antas
13. Autumn Comes

Exact Audio Copy V0.99 prebeta 5 from 4. May 2009

EAC extraction logfile from 19. January 2011, 20:31

Griff / Griff

Used drive : ASUS DRW-24B3LT Adapter: 3 ID: 0

Read mode : Secure
Utilize accurate stream : Yes
Defeat audio cache : Yes
Make use of C2 pointers : No

Read offset correction : 6
Overread into Lead-In and Lead-Out : No
Fill up missing offset samples with silence : Yes
Delete leading and trailing silent blocks : No
Null samples used in CRC calculations : Yes
Used interface : Installed external ASPI interface
Gap handling : Appended to previous track

Used output format : Internal WAV Routines
Sample format : 44.100 Hz; 16 Bit; Stereo


TOC of the extracted CD

Track | Start | Length | Start sector | End sector
––––––––––––––––––––––––––––-
1 | 0:00.00 | 4:04.32 | 0 | 18331
2 | 4:04.32 | 4:37.29 | 18332 | 39135
3 | 8:41.61 | 3:19.49 | 39136 | 54109
4 | 12:01.35 | 3:24.15 | 54110 | 69424
5 | 15:25.50 | 5:07.23 | 69425 | 92472
6 | 20:32.73 | 3:53.12 | 92473 | 109959
7 | 24:26.10 | 4:04.06 | 109960 | 128265
8 | 28:30.16 | 2:35.44 | 128266 | 139934
9 | 31:05.60 | 3:06.30 | 139935 | 153914
10 | 34:12.15 | 2:44.45 | 153915 | 166259
11 | 36:56.60 | 3:34.69 | 166260 | 182378
12 | 40:31.54 | 4:12.28 | 182379 | 201306
13 | 44:44.07 | 3:17.08 | 201307 | 216089


Track 1

Filename F:\MUSIC\Folk & Ethno\BeNeLux\Belgium\_LOSSLESS\Griff - 2005 - Griff [FLAC]\01. Carnaval.wav

Pre-gap length 0:00:02.00

Peak level 98.3 %
Track quality 99.9 %
Test CRC C782CAFA
Copy CRC C782CAFA
Track not present in AccurateRip database
Copy OK

Track 2

Filename F:\MUSIC\Folk & Ethno\BeNeLux\Belgium\_LOSSLESS\Griff - 2005 - Griff [FLAC]\02. Rasta Pizza.wav

Peak level 98.3 %
Track quality 100.0 %
Test CRC 7B191C16
Copy CRC 7B191C16
Track not present in AccurateRip database
Copy OK

Track 3

Filename F:\MUSIC\Folk & Ethno\BeNeLux\Belgium\_LOSSLESS\Griff - 2005 - Griff [FLAC]\03. Fils du Roi.wav

Peak level 98.3 %
Track quality 100.0 %
Test CRC 024AB647
Copy CRC 024AB647
Track not present in AccurateRip database
Copy OK

Track 4

Filename F:\MUSIC\Folk & Ethno\BeNeLux\Belgium\_LOSSLESS\Griff - 2005 - Griff [FLAC]\04. Lazar , An Dro Tortue.wav

Peak level 98.3 %
Track quality 99.9 %
Test CRC F72BE9E6
Copy CRC F72BE9E6
Track not present in AccurateRip database
Copy OK

Track 5

Filename F:\MUSIC\Folk & Ethno\BeNeLux\Belgium\_LOSSLESS\Griff - 2005 - Griff [FLAC]\05. Trolska.wav

Peak level 98.3 %
Track quality 100.0 %
Test CRC A0C056D4
Copy CRC A0C056D4
Track not present in AccurateRip database
Copy OK

Track 6

Filename F:\MUSIC\Folk & Ethno\BeNeLux\Belgium\_LOSSLESS\Griff - 2005 - Griff [FLAC]\06. A la Jolie Fille.wav

Peak level 98.3 %
Track quality 100.0 %
Test CRC 18113634
Copy CRC 18113634
Track not present in AccurateRip database
Copy OK

Track 7

Filename F:\MUSIC\Folk & Ethno\BeNeLux\Belgium\_LOSSLESS\Griff - 2005 - Griff [FLAC]\07. Leksand.wav

Peak level 98.3 %
Track quality 99.9 %
Test CRC 3F7B24E9
Copy CRC 3F7B24E9
Track not present in AccurateRip database
Copy OK

Track 8

Filename F:\MUSIC\Folk & Ethno\BeNeLux\Belgium\_LOSSLESS\Griff - 2005 - Griff [FLAC]\08. Bojyrlyg.wav

Peak level 97.7 %
Track quality 100.0 %
Test CRC EF721953
Copy CRC EF721953
Track not present in AccurateRip database
Copy OK

Track 9

Filename F:\MUSIC\Folk & Ethno\BeNeLux\Belgium\_LOSSLESS\Griff - 2005 - Griff [FLAC]\09. Marivonig An Dourduff.wav

Peak level 98.3 %
Track quality 100.0 %
Test CRC 3924A10D
Copy CRC 3924A10D
Track not present in AccurateRip database
Copy OK

Track 10

Filename F:\MUSIC\Folk & Ethno\BeNeLux\Belgium\_LOSSLESS\Griff - 2005 - Griff [FLAC]\10. Aderyn Du.wav

Peak level 98.3 %
Track quality 100.0 %
Test CRC 50A4B55B
Copy CRC 50A4B55B
Track not present in AccurateRip database
Copy OK

Track 11

Filename F:\MUSIC\Folk & Ethno\BeNeLux\Belgium\_LOSSLESS\Griff - 2005 - Griff [FLAC]\11. Mladja.wav

Peak level 98.3 %
Track quality 100.0 %
Test CRC 1482AB1B
Copy CRC 1482AB1B
Track not present in AccurateRip database
Copy OK

Track 12

Filename F:\MUSIC\Folk & Ethno\BeNeLux\Belgium\_LOSSLESS\Griff - 2005 - Griff [FLAC]\12. Antas.wav

Peak level 98.3 %
Track quality 99.9 %
Test CRC 414A54EA
Copy CRC 414A54EA
Track not present in AccurateRip database
Copy OK

Track 13

Filename F:\MUSIC\Folk & Ethno\BeNeLux\Belgium\_LOSSLESS\Griff - 2005 - Griff [FLAC]\13. Autumn Comes.wav

Peak level 73.7 %
Track quality 100.0 %
Test CRC E2FAFFAB
Copy CRC E2FAFFAB
Track not present in AccurateRip database
Copy OK


None of the tracks are present in the AccurateRip database

No errors occurred

End of status report

foobar2000 1.2.4 / Dynamic Range Meter 1.1.1
log date: 2013-07-29 20:29:21

––––––––––––––––––––––––––––––––––––––––
Analyzed: Griff / Griff
––––––––––––––––––––––––––––––––––––––––

DR Peak RMS Duration Track
––––––––––––––––––––––––––––––––––––––––
DR8 -0.15 dB -10.18 dB 4:04 01-Carnaval
DR9 -0.15 dB -10.70 dB 4:37 02-Rasta Pizza
DR7 -0.15 dB -9.26 dB 3:20 03-Fils du Roi
DR9 -0.15 dB -11.09 dB 3:24 04-Lazar / An Dro Tortue
DR9 -0.15 dB -12.45 dB 5:07 05-Trolska
DR8 -0.15 dB -10.88 dB 3:53 06-A la Jolie Fille
DR8 -0.15 dB -10.08 dB 4:04 07-Leksand
DR10 -0.19 dB -13.05 dB 2:36 08-Bojyrlyg
DR7 -0.15 dB -9.78 dB 3:06 09-Marivonig An Dourduff
DR7 -0.15 dB -8.94 dB 2:45 10-Aderyn Du
DR8 -0.15 dB -9.93 dB 3:35 11-Mladja
DR8 -0.15 dB -10.84 dB 4:12 12-Antas
DR10 -2.64 dB -15.79 dB 3:17 13-Autumn Comes
––––––––––––––––––––––––––––––––––––––––

Number of tracks: 13
Official DR value: DR8

Samplerate: 44100 Hz
Channels: 2
Bits per sample: 16
Bitrate: 918 kbps
Codec: FLAC

Griff - Griff (2004)

Musicians:

Rémi Decker: bagpipes, whistles
Raphaël De Cock: vocal, whistles, bagpipes
Birgit Bornauw: bagpipes
Pascale Rubens: diatonic accordion
Maarten Decombel: guitar
Pieter Lenaerts: double bass

GUESTS:
Jo Zanders: percussion
Hannes Poussele: cello

Griff - Griff (2004)

All thanks go to Yojikk

Download Griff - Griff (2004):