Subcategories

Sofia Gubaidulina - Chaconne, Sonata, Musical Toys, Introitus - Concerto for Piano und Chamber Orch. (repost)

Posted By: tapaz9
Sofia Gubaidulina - Chaconne, Sonata, Musical Toys, Introitus - Concerto for Piano und Chamber Orch. (repost)

Sofia Gubaidulina - Chaconne, Sonata, Musical Toys, Introitus - Concerto for Piano und Chamber Orch. (repost)
Classical | EAC: FLAC+Cue+Log | 1 Cd, Covers + Booklet | 234 Mb
Label: Sony - Date: 1994

The works on this disc comprise Sofia Gubaïdulina's complete solo piano output. They come from her early mature period in the sixties and seventies, yet they pre-date her international rise to prominence that occurred in the eighties and nineties. Though they lack the unusual instrumental disposition Gubaïdulina often revels in, these piano works bear all the hallmarks of spiky rhythm and harmony, unusual instrumental colouring, and hardy Russian poeticism, that are so richly apparent in her other music.
Requested by 13mh13

Tracks:

01. Chaconne [0:09:32.50]
02. Sonata - I. Allegro [0:10:51.50]
03. Sonata - II. Adagio [0:07:39.60]
04. Sonata - III. Allegretto [0:02:38.40]
05. Musical Toys - Mechanical Accordian [0:00:33.00]
06. Musical Toys - Magic Roundabout [0:00:39.00]
07. Musical Toys - The Trumpeter in The Forest [0:01:22.72]
08. Musical Toys - The Magic Smith [0:00:51.43]
09. Musical Toys - April Day [0:00:42.10]
10. Musical Toys - Song of the Fisherman [0:02:04.25]
11. Musical Toys - The Little Tit [0:00:53.52]
12. Musical Toys - A Bear playing double bass and the Black Woman [0:01:01.23]
13. Musical Toys - The Woodpecker [0:02:11.50]
14. Musical Toys - The Elk Clearing [0:00:59.10]
15. Musical Toys - The Sleigh with Little Bells [0:00:44.47]
16. Musical Toys - The Echo [0:02:14.28]
17. Musical Toys - The Drummer [0:01:20.15]
18. Musical Toys - Forest Musicians [0:02:40.00]
19. Introitus: Concerto for Piano and Chamber Orchestra [0:23:19.00]


Exact Audio Copy V1.0 beta 3 from 29. August 2011

EAC extraction logfile from 22. February 2013, 0:58

Sofia Gubaidulina / Chaconne, Sonata, Musical Toys, Introitus - Concerto for Piano und Chamber Orch.

Used drive : TSSTcorpCDDVDW SH-S223C Adapter: 2 ID: 1

Read mode : Secure
Utilize accurate stream : Yes
Defeat audio cache : Yes
Make use of C2 pointers : No

Read offset correction : 697
Overread into Lead-In and Lead-Out : No
Fill up missing offset samples with silence : Yes
Delete leading and trailing silent blocks : No
Null samples used in CRC calculations : Yes
Used interface : Native Win32 interface for Win NT & 2000

Used output format : User Defined Encoder
Selected bitrate : 896 kBit/s
Quality : High
Add ID3 tag : No
Command line compressor : C:\Program Files (x86)\Exact Audio Copy\FLAC\FLAC.EXE
Additional command line options : -V -0 -T "COMMENT=Ripped by Tapaz9" -T "artist=%artist%" -T "title=%title%" -T "album=%albumtitle%" -T "date=%year%" -T "tracknumber=%tracknr%" -T "genre=%genre%" %source%


TOC of the extracted CD

Track | Start | Length | Start sector | End sector
––––––––––––––––––––––––––––-
1 | 0:00.00 | 9:32.50 | 0 | 42949
2 | 9:32.50 | 10:51.50 | 42950 | 91824
3 | 20:24.25 | 7:39.60 | 91825 | 126309
4 | 28:04.10 | 2:38.40 | 126310 | 138199
5 | 30:42.50 | 0:33.00 | 138200 | 140674
6 | 31:15.50 | 0:39.00 | 140675 | 143599
7 | 31:54.50 | 1:22.72 | 143600 | 149821
8 | 33:17.47 | 0:51.43 | 149822 | 153689
9 | 34:09.15 | 0:42.10 | 153690 | 156849
10 | 34:51.25 | 2:04.25 | 156850 | 166174
11 | 36:55.50 | 0:53.52 | 166175 | 170201
12 | 37:49.27 | 1:01.23 | 170202 | 174799
13 | 38:50.50 | 2:11.50 | 174800 | 184674
14 | 41:02.25 | 0:59.10 | 184675 | 189109
15 | 42:01.35 | 0:44.47 | 189110 | 192456
16 | 42:46.07 | 2:14.28 | 192457 | 202534
17 | 45:00.35 | 1:20.15 | 202535 | 208549
18 | 46:20.50 | 2:40.00 | 208550 | 220549
19 | 49:00.50 | 23:19.00 | 220550 | 325474


Range status and errors

Selected range

Filename F:\Musique\Gubaidulina, Sofia\Gubaidulina_Introitus\Sofia Gubaidulina - Chaconne, Sonata, Musical Toys, Introitus - Concerto for Piano und Chamber Orch..wav

Peak level 100.0 %
Extraction speed 14.1 X
Range quality 100.0 %
Copy CRC 947986ED
Copy OK

No errors occurred

End of status report

==== Log checksum 9D44844D781A9611613C80A5E259C74C72DB835FE6BC6FAD3882494EFAC6A933 ====

No Mirrors and Torrent-uploads Please

See my classical digital download posts in the Vinyl & HR section or check out My Avax blog