Subcategories

VA - Guilty Pleasures (2 Volumes) (2004-5)

Posted By: mook45
VA - Guilty Pleasures (2 Volumes) (2004-5)

VA - Guilty Pleasures (2 Volumes) (2004-5)
EAC | FLAC IMG,CUE+LOG = 486/819MB | MP3@320 = 181/305MB | 400 dpi Scans
Pop/Rock | Label: Sony - 518576 2/519572 2 | FSo/FSe


Sometimes even I need a break from the outer limits of Rock'n'Roll…

VA - Guilty Pleasures (2 Volumes) (2004-5)


Guilty Pleasures (2004)

Track listing
1. Alessi - Oh Lori
2. Captain & Tennille - Love Will Keep Us Together
3. Pilot - January
4. Electric Light Orchestra - Sweet Talkin' Woman
5. Climax Blues Band - Couldn't Get It Right
6. Ace - How Long
7. The Fortunes - Storm In A Tea Cup
8. Andy Kim - Rock Me Gently
9. Sherbert - Howzat
10. Carole Bayer Sayer - You're Moving Out
11. Marshall Hain - Dancing In The City
12. 10cc - The Things We Do For Love
13. Andrew Gold - Never Let Her Slip Away
14. Peter Skellern - Hold On To Love
15. Gallagher & Lyle - I Wanna Stay With You
16. Billy Swann - I Can Help
17. David Essex - Gonna Make You A Star
18. Jim Gilstrap - Swing Your Daddy
19. Brian Protheroe - Pinball
20. Helen Reddy - Angie Baby
21. Andy Fairweather Low - Wide Eyed And Legless
22. Colin Blunstone - Say You Don't Mind

Exact Audio Copy V0.99 prebeta 5 from 4. May 2009

EAC extraction logfile from 22. December 2009, 2:30

Various / Guilty Pleasures

Used drive : HP DVD Writer 1040r Adapter: 1 ID: 0

Read mode : Secure
Utilize accurate stream : Yes
Defeat audio cache : Yes
Make use of C2 pointers : No

Read offset correction : 6
Overread into Lead-In and Lead-Out : No
Fill up missing offset samples with silence : Yes
Delete leading and trailing silent blocks : No
Null samples used in CRC calculations : Yes
Used interface : Native Win32 interface for Win NT & 2000

Used output format : User Defined Encoder
Selected bitrate : 1024 kBit/s
Quality : High
Add ID3 tag : No
Command line compressor : C:\Program Files\Exact Audio Copy\FLAC\FLAC.EXE
Additional command line options : -5 -V -T "ARTIST=%a" -T "TITLE=%t" -T "ALBUM=%g" -T "DATE=%y" -T "TRACKNUMBER=%n" -T "GENRE=%m" -T "COMMENT=EAC Flac 1.1.2 -5" %s


TOC of the extracted CD

Track | Start | Length | Start sector | End sector
––––––––––––––––––––––––––––-
1 | 0:00.00 | 3:20.31 | 0 | 15030
2 | 3:20.31 | 3:24.42 | 15031 | 30372
3 | 6:44.73 | 3:30.39 | 30373 | 46161
4 | 10:15.37 | 3:47.62 | 46162 | 63248
5 | 14:03.24 | 3:10.06 | 63249 | 77504
6 | 17:13.30 | 3:22.47 | 77505 | 92701
7 | 20:36.02 | 3:14.05 | 92702 | 107256
8 | 23:50.07 | 3:27.06 | 107257 | 122787
9 | 27:17.13 | 3:46.05 | 122788 | 139742
10 | 31:03.18 | 3:33.73 | 139743 | 155790
11 | 34:37.16 | 3:46.17 | 155791 | 172757
12 | 38:23.33 | 3:19.38 | 172758 | 187720
13 | 41:42.71 | 3:26.11 | 187721 | 203181
14 | 45:09.07 | 2:57.20 | 203182 | 216476
15 | 48:06.27 | 2:56.70 | 216477 | 229746
16 | 51:03.22 | 4:00.31 | 229747 | 247777
17 | 55:03.53 | 3:41.37 | 247778 | 264389
18 | 58:45.15 | 2:52.60 | 264390 | 277349
19 | 61:38.00 | 3:15.00 | 277350 | 291974
20 | 64:53.00 | 3:28.44 | 291975 | 307618
21 | 68:21.44 | 3:58.21 | 307619 | 325489
22 | 72:19.65 | 3:20.02 | 325490 | 340491


Range status and errors

Selected range

Filename C:\Users\Mike3\Desktop\Guilty Pleasures (Flac)\Various - Guilty Pleasures.wav

Peak level 98.8 %
Range quality 100.0 %
Copy CRC 97B8C9AB
Copy OK

No errors occurred


AccurateRip summary

Track 1 accurately ripped (confidence 7) [6F67648E]
Track 2 accurately ripped (confidence 7) [AE3840A7]
Track 3 accurately ripped (confidence 7) [07B03DCD]
Track 4 accurately ripped (confidence 7) [1D5B4CC9]
Track 5 accurately ripped (confidence 7) [7EE1F2F4]
Track 6 accurately ripped (confidence 7) [63830669]
Track 7 accurately ripped (confidence 7) [E4E694B1]
Track 8 accurately ripped (confidence 7) [A91508F0]
Track 9 accurately ripped (confidence 7) [3FB8B838]
Track 10 accurately ripped (confidence 7) [E11A30C1]
Track 11 accurately ripped (confidence 7) [18BFB7B9]
Track 12 accurately ripped (confidence 7) [F0D1DDCD]
Track 13 accurately ripped (confidence 7) [D4C66F77]
Track 14 accurately ripped (confidence 7) [959D0EF2]
Track 15 accurately ripped (confidence 7) [2C654ED5]
Track 16 accurately ripped (confidence 7) [4290328A]
Track 17 accurately ripped (confidence 7) [77F49907]
Track 18 accurately ripped (confidence 7) [FBA166A4]
Track 19 accurately ripped (confidence 7) [E278CC4C]
Track 20 accurately ripped (confidence 7) [992C38A5]
Track 21 accurately ripped (confidence 7) [B87B0C0A]
Track 22 accurately ripped (confidence 7) [B731ECB4]

All tracks accurately ripped

End of status report

Files
Lame 320 Kbps = 181MB
Flac 883 Kbps = 486MB

VA - Guilty Pleasures (2 Volumes) (2004-5)


Guilty Pleasures Rides Again (2005)

Track listing
Disc 1

1. Starlight Vocal Band - Afternoon Delight
2. Starbuck - Moonlight Feels Right
3. Manfred Mann - Blinded By The Light
4. Doobie Brothers - What A Fool Believes
5. Hall & Oates - Rich Girl
6. Gerry Rafferty -Get It Right Next Time
7. Andrew Gold - Lonely Boy
8. Fox - Single Bed
9. John Paul Young - Love Is In The Air
10. ELO - Living Thing
11. Clout - Substitute
12. Kim Carnes - Betty Davis Eyes
13. Bellamy Brothers - Let Your Love Flow
14. Olivia Newton John - If Not For You
15. England Dan & John Ford Coley - I'd Really Love To See You Tonight
16. Rupert Holmes - Escape (The Pina Colada Song)
17. David Essex - Rock On
18. Chas n Dave - Ain't No Pleasing You

Disc 2

1. Christopher Cross - Ride Like The Wind
2. Foreigner - Cold As Ice
3. Toto - Hold The Line
4. Boz Scaggs - Lido Shuffle
5. Four Seasons - Who Loves You
6. David Dundas - Jeans On
7. Pilot - Magic
8. Gilbert O' Sullivan - Get Down
9. David Soul - Silver Lady
10. Sutherland Brothers - Arms Of Mary
11. Art Garfunkel - Breakaway
12. Player - Baby Come Back
13. Randy Edelman - Uptown Uptempo Woman
14. Neil Sedaka - Laughter In The Rain
15. Orleans - Dance With Me
16. Sad Café - Everyday Hurts
17. Exile - Kiss You All Over
18. Dolly Parton - 9 To 5

Exact Audio Copy V0.99 prebeta 5 from 4. May 2009

EAC extraction logfile from 22. December 2009, 2:56

Various / Guilty Pleasures Rides Again [Disc 1]

Used drive : HP DVD Writer 1040r Adapter: 1 ID: 0

Read mode : Secure
Utilize accurate stream : Yes
Defeat audio cache : Yes
Make use of C2 pointers : No

Read offset correction : 6
Overread into Lead-In and Lead-Out : No
Fill up missing offset samples with silence : Yes
Delete leading and trailing silent blocks : No
Null samples used in CRC calculations : Yes
Used interface : Native Win32 interface for Win NT & 2000

Used output format : User Defined Encoder
Selected bitrate : 1024 kBit/s
Quality : High
Add ID3 tag : No
Command line compressor : C:\Program Files\Exact Audio Copy\FLAC\FLAC.EXE
Additional command line options : -5 -V -T "ARTIST=%a" -T "TITLE=%t" -T "ALBUM=%g" -T "DATE=%y" -T "TRACKNUMBER=%n" -T "GENRE=%m" -T "COMMENT=EAC Flac 1.1.2 -5" %s


TOC of the extracted CD

Track | Start | Length | Start sector | End sector
––––––––––––––––––––––––––––-
1 | 0:00.00 | 3:13.49 | 0 | 14523
2 | 3:13.49 | 3:37.48 | 14524 | 30846
3 | 6:51.22 | 3:48.59 | 30847 | 48005
4 | 10:40.06 | 3:41.50 | 48006 | 64630
5 | 14:21.56 | 2:23.39 | 64631 | 75394
6 | 16:45.20 | 4:41.38 | 75395 | 96507
7 | 21:26.58 | 4:21.05 | 96508 | 116087
8 | 25:47.63 | 3:48.16 | 116088 | 133203
9 | 29:36.04 | 3:26.06 | 133204 | 148659
10 | 33:02.10 | 3:33.70 | 148660 | 164704
11 | 36:36.05 | 3:24.52 | 164705 | 180056
12 | 40:00.57 | 3:44.63 | 180057 | 196919
13 | 43:45.45 | 3:16.41 | 196920 | 211660
14 | 47:02.11 | 2:53.30 | 211661 | 224665
15 | 49:55.41 | 2:38.56 | 224666 | 236571
16 | 52:34.22 | 3:50.26 | 236572 | 253847
17 | 56:24.48 | 3:24.57 | 253848 | 269204
18 | 59:49.30 | 4:14.14 | 269205 | 288268


Range status and errors

Selected range

Filename C:\Users\Mike3\Desktop\Guilty Pleasures Rides Again (Flac)\Disc 1\Various - Guilty Pleasures Rides Again [Disc 1].wav

Peak level 100.0 %
Range quality 100.0 %
Copy CRC FD1B96B0
Copy OK

No errors occurred


AccurateRip summary

Track 1 accurately ripped (confidence 5) [D152CDC1]
Track 2 accurately ripped (confidence 6) [AF557D0A]
Track 3 accurately ripped (confidence 6) [E1109413]
Track 4 accurately ripped (confidence 6) [213632AD]
Track 5 accurately ripped (confidence 6) [4E85D205]
Track 6 accurately ripped (confidence 6) [9197CBD1]
Track 7 accurately ripped (confidence 6) [A988D19D]
Track 8 accurately ripped (confidence 6) [94672CBE]
Track 9 accurately ripped (confidence 6) [86C544E7]
Track 10 accurately ripped (confidence 6) [B1477E25]
Track 11 accurately ripped (confidence 6) [8B437DA2]
Track 12 accurately ripped (confidence 6) [3C425B07]
Track 13 accurately ripped (confidence 6) [06BBA7C3]
Track 14 accurately ripped (confidence 6) [8AD308FA]
Track 15 accurately ripped (confidence 6) [63BF9EFA]
Track 16 accurately ripped (confidence 6) [D9C84097]
Track 17 accurately ripped (confidence 6) [44568560]
Track 18 accurately ripped (confidence 6) [9FB578DD]

All tracks accurately ripped

End of status report


Exact Audio Copy V0.99 prebeta 5 from 4. May 2009

EAC extraction logfile from 22. December 2009, 3:24

Various / Guilty Pleasures Rides Again [Disc 2]

Used drive : HP DVD Writer 1040r Adapter: 1 ID: 0

Read mode : Secure
Utilize accurate stream : Yes
Defeat audio cache : Yes
Make use of C2 pointers : No

Read offset correction : 6
Overread into Lead-In and Lead-Out : No
Fill up missing offset samples with silence : Yes
Delete leading and trailing silent blocks : No
Null samples used in CRC calculations : Yes
Used interface : Native Win32 interface for Win NT & 2000

Used output format : User Defined Encoder
Selected bitrate : 1024 kBit/s
Quality : High
Add ID3 tag : No
Command line compressor : C:\Program Files\Exact Audio Copy\FLAC\FLAC.EXE
Additional command line options : -5 -V -T "ARTIST=%a" -T "TITLE=%t" -T "ALBUM=%g" -T "DATE=%y" -T "TRACKNUMBER=%n" -T "GENRE=%m" -T "COMMENT=EAC Flac 1.1.2 -5" %s


TOC of the extracted CD

Track | Start | Length | Start sector | End sector
––––––––––––––––––––––––––––-
1 | 0:00.00 | 4:32.24 | 0 | 20423
2 | 4:32.24 | 3:20.58 | 20424 | 35481
3 | 7:53.07 | 3:57.48 | 35482 | 53304
4 | 11:50.55 | 3:42.45 | 53305 | 69999
5 | 15:33.25 | 4:15.34 | 70000 | 89158
6 | 19:48.59 | 3:19.67 | 89159 | 104150
7 | 23:08.51 | 3:04.03 | 104151 | 117953
8 | 26:12.54 | 2:41.09 | 117954 | 130037
9 | 28:53.63 | 3:41.09 | 130038 | 146621
10 | 32:34.72 | 2:38.25 | 146622 | 158496
11 | 35:13.22 | 3:35.65 | 158497 | 174686
12 | 38:49.12 | 3:34.28 | 174687 | 190764
13 | 42:23.40 | 3:54.31 | 190765 | 208345
14 | 46:17.71 | 2:45.62 | 208346 | 220782
15 | 49:03.58 | 3:20.16 | 220783 | 235798
16 | 52:23.74 | 4:04.45 | 235799 | 254143
17 | 56:28.44 | 3:36.27 | 254144 | 270370
18 | 60:04.71 | 2:46.12 | 270371 | 282832


Range status and errors

Selected range

Filename C:\Users\Mike3\Desktop\Guilty Pleasures Rides Again (Flac)\Disc 2\Various - Guilty Pleasures Rides Again [Disc 2].wav

Peak level 100.0 %
Range quality 100.0 %
Copy CRC 68D697A5
Copy OK

No errors occurred


AccurateRip summary

Track 1 accurately ripped (confidence 5) [14EB8630]
Track 2 accurately ripped (confidence 5) [157901AB]
Track 3 accurately ripped (confidence 5) [139197A3]
Track 4 accurately ripped (confidence 5) [D8B86762]
Track 5 accurately ripped (confidence 5) [649572A0]
Track 6 accurately ripped (confidence 5) [BA30E597]
Track 7 accurately ripped (confidence 5) [7C460CCD]
Track 8 accurately ripped (confidence 5) [7757653C]
Track 9 accurately ripped (confidence 5) [92A611C2]
Track 10 accurately ripped (confidence 6) [FA9A33A3]
Track 11 accurately ripped (confidence 5) [2EAF2EB9]
Track 12 accurately ripped (confidence 5) [62D7A703]
Track 13 accurately ripped (confidence 5) [239164C1]
Track 14 accurately ripped (confidence 5) [6930BA9B]
Track 15 accurately ripped (confidence 5) [B2FF3DE7]
Track 16 accurately ripped (confidence 5) [249DE6A1]
Track 17 accurately ripped (confidence 5) [5639EA9D]
Track 18 accurately ripped (confidence 6) [B087D748]

All tracks accurately ripped

End of status report

Files
Lame 320 Kbps = 305MB
Flac 886 Kbps = 819MB

Vol. 1

320

http://www.filesonic.com/file/26743035/GP_3_.rar

Flac

http://www.filesonic.com/file/26743095/GP_F_.part1.rar
http://www.filesonic.com/file/26743043/GP_F_.part2.rar
http://www.filesonic.com/file/26743019/GP_F_.part3.rar

Vol. 2

320

http://www.filesonic.com/file/26743029/GP2_3_.part1.rar
http://www.filesonic.com/file/26743023/GP2_3_.part2.rar

Flac

http://www.filesonic.com/file/26743053/GP2_F_.part1.rar
http://www.filesonic.com/file/26743131/GP2_F_.part2.rar
http://www.filesonic.com/file/26743057/GP2_F_.part3.rar
http://www.filesonic.com/file/26743113/GP2_F_.part4.rar
http://www.filesonic.com/file/26743007/GP2_F_.part5.rar


Vol. 1

320

http://www.fileserve.com/file/Z3GkgBR/GP_3_.rar

Flac

http://www.fileserve.com/file/8GDR2WB/GP_F_.part1.rar
http://www.fileserve.com/file/XqRbdn4/GP_F_.part2.rar
http://www.fileserve.com/file/zAs86YS/GP_F_.part3.rar

Vol. 2

320

http://www.fileserve.com/file/7K2WKkx/GP2_3_.part1.rar
http://www.fileserve.com/file/8FD2M3V/GP2_3_.part2.rar

Flac

http://www.fileserve.com/file/3RReEcd/GP2_F_.part1.rar
http://www.fileserve.com/file/gJcDjF6/GP2_F_.part2.rar
http://www.fileserve.com/file/JdtMQEs/GP2_F_.part3.rar
http://www.fileserve.com/file/MWvuzqr/GP2_F_.part4.rar
http://www.fileserve.com/file/QSdZDEn/GP2_F_.part5.rar

No mirrors