Subcategories

Guns N' Roses - Appetite For Destruction (1987) [MFSL, UDCD 699]

Posted By: v3122
Guns N' Roses - Appetite For Destruction (1987) [MFSL, UDCD 699]

Guns N' Roses - Appetite For Destruction (1987)
EAC | Flac(Image) + Cue + Log & MP3 CBR 320Kbps
1997 | Mobile Fidelity Sound Lab, UDCD 699 | ~ 392 or 127 Mb | Scans(jpg) -> 32 Mb
Hard Rock / Glam

Guns N' Roses' debut, Appetite for Destruction was a turning point for hard rock in the late '80s – it was a dirty, dangerous, and mean record in a time when heavy metal meant nothing but a good time. On the surface, Guns N' Roses may appear to celebrate the same things as their peers – namely, sex, liquor, drugs, and rock & roll – but there is a nasty edge to their songs, since Axl Rose doesn't see much fun in the urban sprawl of L.A. and its parade of heavy metal thugs, cheap women, booze, and crime. The music is as nasty as the lyrics, wallowing in a bluesy, metallic hard rock borrowed from Aerosmith, AC/DC, and countless faceless hard rock bands of the early '80s. It's a primal, sleazy sound that adds grit to already grim tales. It also makes Rose's misogyny, fear, and anger hard to dismiss as merely an artistic statement; this is music that sounds lived-in. And that's exactly why Appetite for Destruction is such a powerful record – not only does Rose have fears, but he also is vulnerable, particularly on the power ballad "Sweet Child O' Mine." He also has a talent for conveying the fears and horrors of the decaying inner city, whether it's on the charging "Welcome to the Jungle," the heroin ode "Mr. Brownstone," or "Paradise City," which simply wants out. But as good as Rose's lyrics and screeching vocals are, they wouldn't be nearly as effective without the twin-guitar interplay of Slash and Izzy Stradlin, who spit out riffs and solos better than any band since the Rolling Stones, and that's what makes Appetite for Destruction the best metal record of the late '80s.

by Stephen Thomas Erlewine, allmusic
Guns N' Roses - Appetite For Destruction (1987) [MFSL, UDCD 699]


Guns N' Roses - Appetite For Destruction (1987):

Guns N' Roses - Appetite For Destruction (1987) [MFSL, UDCD 699]

Tracklist:

01. Welcome To The Jungle [4:33]
02. It's So Easy [3:23]
03. Nightrain [4:28]
04. Out Ta Get Me [4:22]
05. Mr. Brownstone [3:49]
06. Paradise City [6:48]
07. My Michelle [3:40]
08. Think About You [3:51]
09. Sweet Child O' Mine [5:56]
10. You're Crazy [3:17]
11. Anything Goes [3:26]
12. Rocket Queen [6:13]

Exact Audio Copy V0.99 prebeta 5 from 4. May 2009

EAC extraction logfile from 24. April 2012, 20:22

Guns N' Roses / Appetite For Destruction

Used drive : ASUS DRW-24B3ST Adapter: 0 ID: 0

Read mode : Secure
Utilize accurate stream : Yes
Defeat audio cache : Yes
Make use of C2 pointers : No

Read offset correction : 6
Overread into Lead-In and Lead-Out : No
Fill up missing offset samples with silence : Yes
Delete leading and trailing silent blocks : No
Null samples used in CRC calculations : Yes
Used interface : Native Win32 interface for Win NT & 2000

Used output format : Internal WAV Routines
Sample format : 44.100 Hz; 16 Bit; Stereo


TOC of the extracted CD

Track | Start | Length | Start sector | End sector
––––––––––––––––––––––––––––-
1 | 0:00.00 | 4:33.00 | 0 | 20474
2 | 4:33.00 | 3:23.05 | 20475 | 35704
3 | 7:56.05 | 4:27.60 | 35705 | 55789
4 | 12:23.65 | 4:22.15 | 55790 | 75454
5 | 16:46.05 | 3:48.57 | 75455 | 92611
6 | 20:34.62 | 6:47.73 | 92612 | 123209
7 | 27:22.60 | 3:40.12 | 123210 | 139721
8 | 31:02.72 | 3:51.00 | 139722 | 157046
9 | 34:53.72 | 5:56.15 | 157047 | 183761
10 | 40:50.12 | 3:17.10 | 183762 | 198546
11 | 44:07.22 | 3:26.30 | 198547 | 214026
12 | 47:33.52 | 6:12.60 | 214027 | 241986


Range status and errors

Selected range

Filename G:\GUNS N' ROSES\1987- Appetite For Destruction (US 1997 MFSL • UDCD 699)\Guns N' Roses - Appetite For Destruction.wav

Peak level 100.0 %
Range quality 100.0 %
Test CRC D1898EFA
Copy CRC D1898EFA
Copy OK

No errors occurred


AccurateRip summary

Track 1 accurately ripped (confidence 42) [5F0A682D]
Track 2 accurately ripped (confidence 43) [DE2D2644]
Track 3 accurately ripped (confidence 41) [A8973AE2]
Track 4 accurately ripped (confidence 41) [A7398985]
Track 5 accurately ripped (confidence 42) [895C90F9]
Track 6 accurately ripped (confidence 42) [7DADAAA1]
Track 7 accurately ripped (confidence 41) [854E6C26]
Track 8 accurately ripped (confidence 42) [157B4195]
Track 9 accurately ripped (confidence 42) [EBAC9C0B]
Track 10 accurately ripped (confidence 41) [364475BD]
Track 11 accurately ripped (confidence 41) [5EF06D0B]
Track 12 accurately ripped (confidence 41) [C258080E]

All tracks accurately ripped

End of status report

foobar2000 1.2.9 / Dynamic Range Meter 1.1.1
log date: 2016-12-08 03:36:28

––––––––––––––––––––––––––––––––––––––––
Analyzed: Guns N' Roses / Appetite For Destruction
––––––––––––––––––––––––––––––––––––––––

DR Peak RMS Duration Track
––––––––––––––––––––––––––––––––––––––––
DR10 0.00 dB -11.95 dB 4:33 01-Welcome To The Jungle
DR11 -0.45 dB -13.02 dB 3:23 02-It's So Easy
DR9 0.00 dB -11.55 dB 4:28 03-Nightrain
DR10 -0.31 dB -11.74 dB 4:22 04-Out Ta Get Me
DR11 -0.66 dB -13.28 dB 3:49 05-Mr. Brownstone
DR10 -0.07 dB -12.56 dB 6:48 06-Paradise City
DR10 0.00 dB -11.96 dB 3:40 07-My Michelle
DR10 -0.16 dB -11.70 dB 3:51 08-Think About You
DR10 0.00 dB -11.41 dB 5:56 09-Sweet Child O' Mine
DR9 0.00 dB -10.93 dB 3:17 10-You're Crazy
DR10 -0.43 dB -12.24 dB 3:26 11-Anything Goes
DR10 0.00 dB -12.01 dB 6:13 12-Rocket Queen
––––––––––––––––––––––––––––––––––––––––

Number of tracks: 12
Official DR value: DR10

Samplerate: 44100 Hz
Channels: 2
Bits per sample: 16
Bitrate: 990 kbps
Codec: FLAC

[CUETools log; Date: 08.12.2016 3:36:15; Version: 2.1.4]
[CTDB TOCID: tQdEpYKwqD.ZTZ301nlrfep0bkE-] found.
Track | CTDB Status
1 | (56/56) Accurately ripped
2 | (53/56) Accurately ripped
3 | (56/56) Accurately ripped
4 | (53/56) Accurately ripped
5 | (54/56) Accurately ripped
6 | (54/56) Accurately ripped
7 | (53/56) Accurately ripped
8 | (54/56) Accurately ripped
9 | (55/56) Accurately ripped
10 | (56/56) Accurately ripped
11 | (54/56) Accurately ripped
12 | (52/56) Accurately ripped
[AccurateRip ID: 00177923-00dc3d62-b00c9a0c] found.
Track [ CRC | V2 ] Status
01 [5f0a682d|e0d92b9a] (047+044/125) Accurately ripped
02 [de2d2644|5c4cb99d] (048+044/127) Accurately ripped
03 [a8973ae2|da782b20] (045+044/123) Accurately ripped
04 [a7398985|92fafee4] (045+045/125) Accurately ripped
05 [895c90f9|ec0afe89] (047+044/126) Accurately ripped
06 [7dadaaa1|6c0051d0] (046+045/126) Accurately ripped
07 [854e6c26|b82f9668] (046+044/124) Accurately ripped
08 [157b4195|4d526407] (047+044/125) Accurately ripped
09 [ebac9c0b|63004f19] (047+044/125) Accurately ripped
10 [364475bd|ccf2bdb8] (046+043/123) Accurately ripped
11 [5ef06d0b|bb2b2650] (046+044/124) Accurately ripped
12 [c258080e|ab391f68] (046+042/123) Accurately ripped
Offsetted by 12:
01 [e16dffdd] (004/125) Accurately ripped
02 [8ddd9a8c] (004/127) Accurately ripped
03 [7f8673f2] (004/123) Accurately ripped
04 [1ef71139] (004/125) Accurately ripped
05 [885ce049] (004/126) Accurately ripped
06 [65a53011] (004/126) Accurately ripped
07 [93e88346] (004/124) Accurately ripped
08 [2b22ad0d] (004/125) Accurately ripped
09 [bdd4a3df] (004/125) Accurately ripped
10 [839f513d] (004/123) Accurately ripped
11 [4b13bc4b] (004/124) Accurately ripped
12 [dec8a1cd] (003/123) Accurately ripped
Offsetted by 30:
01 [25036365] (012/125) Accurately ripped
02 [956648f8] (012/127) Accurately ripped
03 [41ed498a] (012/123) Accurately ripped
04 [52935cc7] (012/125) Accurately ripped
05 [86dd5741] (012/126) Accurately ripped
06 [c1987839] (012/126) Accurately ripped
07 [29cfa5f6] (012/124) Accurately ripped
08 [4b9dce41] (012/125) Accurately ripped
09 [7910af9d] (012/125) Accurately ripped
10 [f7a79a7d] (012/123) Accurately ripped
11 [2d48b32b] (012/124) Accurately ripped
12 [6fe42119] (013/123) Accurately ripped
Offsetted by 36:
01 [e6352f3d] (004/125) Accurately ripped
02 [ed3e831c] (005/127) Accurately ripped
03 [2d64e612] (005/123) Accurately ripped
04 [0e7220a1] (005/125) Accurately ripped
05 [865d7ee9] (005/126) Accurately ripped
06 [35943af1] (005/126) Accurately ripped
07 [b11cb186] (004/124) Accurately ripped
08 [567183fd] (004/125) Accurately ripped
09 [6224b387] (004/125) Accurately ripped
10 [1e55083d] (004/123) Accurately ripped
11 [235a5acb] (004/124) Accurately ripped
12 [a0e9d73e] (005/123) Accurately ripped
Offsetted by 60:
01 [eafc5e9d] (003/125) Accurately ripped
02 [4c9f6bac] (003/127) Accurately ripped
03 [db435832] (003/123) Accurately ripped
04 [fded3009] (003/125) Accurately ripped
05 [845e1d89] (003/126) Accurately ripped
06 [058345d1] (003/126) Accurately ripped
07 [ce50dfc6] (003/124) Accurately ripped
08 [81c05aed] (003/125) Accurately ripped
09 [0674c32f] (003/125) Accurately ripped
10 [b90abf3d] (003/123) Accurately ripped
11 [fba0f94b] (003/124) Accurately ripped
12 [759b4f83] (003/123) Accurately ripped

Track Peak [ CRC32 ] [W/O NULL] [ LOG ]
– 100,0 [D1898EFA] [5E1FB9C5] CRC32
01 100,0 [550F1C75] [E6E10139]
02 94,9 [61A5D8E8] [01C115A8]
03 100,0 [8EEB8959] [4C727F7F]
04 96,4 [AA812B5D] [D35F2F5E]
05 92,7 [6BA9BF25] [68474711]
06 99,2 [A22F60EB] [D6CB1E7C]
07 100,0 [6B4C6496] [1C119838]
08 98,2 [ACE06009] [7828F6DA]
09 100,0 [EAF581AB] [63BCCDEE]
10 100,0 [3B6F44B7] [02DF7A66]
11 95,1 [ADA55B0E] [0774F158]
12 100,0 [448BB7FC] [32D55205]

Guns N' Roses - Appetite For Destruction (1987) [MFSL, UDCD 699]

All thanks go to the original releaser

Guns N' Roses in my Blog

Download Guns N' Roses - Appetite For Destruction (1987):