Subcategories

Guns N' Roses - Rock in Rio (2017) [HDTV 1080i]

Posted By: v3122
Guns N' Roses - Rock in Rio (2017) [HDTV 1080i]

Guns N' Roses - Rock in Rio (2017)
TS: MPEG4 1920x1080, 29.97fp,s 12.8 Mb/s | Dolby AC3, 6 ch, 384 kbps
Rock / Hard Rock / Glam | 03:24:52 | ~ 20.74 Gb

~ Guns N' Roses Live at Parque Olímpico, Rio de Janeiro, Brazil on September 23, 2017 ~

Guns N' Roses - Rock in Rio (2017) [HDTV 1080i]


Guns N' Roses - Rock in Rio (2017):

Tracklist:

It's So Easy
Mr. Brownstone
Chinese Democracy
Welcome to the Jungle
Double Talkin' Jive
Better
Estranged
Live and Let Die
Rocket Queen
You Could Be Mine
Attitude
This I Love
Civil War
Yesterdays
Coma
Slash Guitar Solo
Speak Softly Love (Love Theme From The Godfather)
Sweet Child O' Mine
Wichita Lineman
Used to Love Her
My Michelle
Wish You Were Here
November Rain
Black Hole Sun
Knockin' on Heaven's Door
Nightrain
Sorry
Patience
Whole Lotta Rosie
Don't Cry
The Seeker

Общее
ID : 1 (0x1)
Complete name : W:\UP\Mix\Guns N' Roses - Rock in Rio 2017\Guns N' Roses - Rock in Rio 2017.ts
Format : MPEG-TS
File size : 19,8 Гбайт
Duration : 3 ч. 24 м.
Overall bit rate mode : Переменный
Overall bit rate : 13,8 Мбит/сек

Видео
ID : 1328 (0x530)
Menu ID : 1336 (0x538)
Format : AVC
Format/Info : Advanced Video Codec
Format profile : High@L4.0
Format settings, CABAC : Да
Format settings, ReFrames : 4 кадра
Codec ID : 27
Duration : 3 ч. 24 м.
Bit rate : 12,8 Мбит/сек
Width : 1920 пикселей
Height : 1080 пикселей
Display aspect ratio : 16:9
Frame rate : 29,970 кадров/сек
Color space : YUV
Chroma subsampling : 4:2:0
Bit depth : 8 бит
Scan type : MBAFF
Bits/(Pixel*Frame) : 0.205
Stream size : 18,3 Гбайт (92%)

Аудио
ID : 1329 (0x531)
Menu ID : 1336 (0x538)
Format : AC-3
Format/Info : Audio Coding 3
Mode extension : CM (complete main)
Format settings, Endianness : Big
Codec ID : 129
Duration : 3 ч. 24 м.
Bit rate mode : Постоянный
Bit rate : 384 Кбит/сек
Channel(s) : 6 каналов
Channel positions : Front: L C R, Side: L R, LFE
Sampling rate : 48,0 КГц
Bit depth : 16 бит
Compression mode : С потерями
Delay relative to video : -167 мс.
Stream size : 563 Мбайт (3%)
Language : English



Guns N' Roses - Rock in Rio (2017) [HDTV 1080i]

Guns N' Roses - Rock in Rio (2017) [HDTV 1080i]

Guns N' Roses - Rock in Rio (2017) [HDTV 1080i]

Guns N' Roses - Rock in Rio (2017) [HDTV 1080i]

Guns N' Roses - Rock in Rio (2017) [HDTV 1080i]

All thanks go to meloman67

Guns N' Roses or Guns N' Roses in my Blog

Download Guns N' Roses - Rock in Rio (2017):