Subcategories

Guns N' Roses - Unplugged (1993)

Posted By: flac jacket
Guns N' Roses - Unplugged (1993)

Guns N' Roses - Unplugged (1993)
EAC Secure Rip | FLAC (Image + Cue + Log) Complete Scans (Jpeg 600 dpi) - 577 MB | MP3 (CBR320 Kbps) - 143 MB
Hard Rock | Kiss The Stone | KTS220 | 58:28 minutes | 5% WinRar Recovery | Hosted on: Uploaded & FilePost
Unofficial Release

FM soundboard recording of Guns N' Roses from the 1993 Skin and Bones Tour. Recorded July 16, 1993 at the Estadio River Plate, Buenos Aires, Argentina. Also, as a bonus, you get to hear the Lies sessions recorded live at CBGB's, New York, October 30, 1987 and a demo version of Move To The City.

Exact Audio Copy V1.0 beta 2 from 29. April 2011

EAC extraction logfile from 15. January 2013, 7:56

Guns N' Roses / Unplugged

Used drive : HL-DT-STDVDRAM GH60N Adapter: 0 ID: 1

Read mode : Secure
Utilize accurate stream : Yes
Defeat audio cache : Yes
Make use of C2 pointers : No

Read offset correction : 667
Overread into Lead-In and Lead-Out : No
Fill up missing offset samples with silence : Yes
Delete leading and trailing silent blocks : No
Null samples used in CRC calculations : Yes
Used interface : Native Win32 interface for Win NT & 2000

Used output format : User Defined Encoder
Selected bitrate : 1024 kBit/s
Quality : High
Add ID3 tag : No
Command line compressor : C:\Program Files (x86)\Exact Audio Copy\Flac\flac.exe
Additional command line options : -V -5 -T "artist=%albumartist%" -T "title=%title%" -T "album=%albumtitle%" -T "date=%year%" -T "genre=%genre%" -T "tracknumber=%tracknr%" %source%


TOC of the extracted CD

Track | Start | Length | Start sector | End sector
––––––––––––––––––––––––––––-
1 | 0:00.32 | 4:16.45 | 32 | 19276
2 | 4:17.02 | 3:06.25 | 19277 | 33251
3 | 7:23.27 | 5:30.68 | 33252 | 58069
4 | 12:54.20 | 3:31.40 | 58070 | 73934
5 | 16:25.60 | 8:13.55 | 73935 | 110964
6 | 24:39.40 | 8:00.20 | 110965 | 146984
7 | 32:39.60 | 7:18.07 | 146985 | 179841
8 | 39:57.67 | 2:48.30 | 179842 | 192471
9 | 42:46.22 | 7:09.38 | 192472 | 224684
10 | 49:55.60 | 4:57.42 | 224685 | 247001
11 | 54:53.27 | 3:34.33 | 247002 | 263084


Range status and errors

Selected range

Filename C:\EAC\Guns N' Roses - (1993) Unplugged\Guns N' Roses - Unplugged.wav

Suspicious position 0:32:56 - 0:33:01
Suspicious position 0:57:36 - 0:57:56
Suspicious position 0:58:07 - 0:58:15

Peak level 100.0 %
Extraction speed 0.3 X
Range quality 98.3 %
Test CRC 87D3C1EB
Copy CRC 9A748721
Copy finished

There were errors


AccurateRip summary

Track 1 cannot be verified as accurate (confidence 3) [ECF13EC4], AccurateRip returned [A41434D6] (AR v2)
Track 2 cannot be verified as accurate (confidence 3) [58E6913A], AccurateRip returned [A2D9FD7F] (AR v2)
Track 3 cannot be verified as accurate (confidence 3) [F2D22D4D], AccurateRip returned [83D93F64] (AR v2)
Track 4 cannot be verified as accurate (confidence 3) [485AB468], AccurateRip returned [3E9D42F6] (AR v2)
Track 5 cannot be verified as accurate (confidence 3) [06263AAB], AccurateRip returned [EDE9C251] (AR v2)
Track 6 cannot be verified as accurate (confidence 3) [4127D18E], AccurateRip returned [E4EBAFB8] (AR v2)
Track 7 cannot be verified as accurate (confidence 3) [E414DF3C], AccurateRip returned [AE259CBF] (AR v2)
Track 8 cannot be verified as accurate (confidence 3) [8AC50B2F], AccurateRip returned [A1AAE842] (AR v2)
Track 9 cannot be verified as accurate (confidence 3) [5D962FD8], AccurateRip returned [9F78706B] (AR v2)
Track 10 cannot be verified as accurate (confidence 3) [5EBE3179], AccurateRip returned [9AE853C2] (AR v2)
Track 11 cannot be verified as accurate (confidence 2) [D899201A], AccurateRip returned [00991A0B] (AR v2)

No tracks could be verified as accurate

End of status report

==== Log checksum 3610F596DC5519EBB613180087830EC747FEDE898CB5B80589BA775A18415C12 ====


Track Listing:

01. Dead Flowers
02. You Ain't The First
03. You're Crazy
04. Used To Love Her
05. Medley: Patience, Imagine
06. Knockin' On Heaven's Door
07. One In A Million
08. Used To Love Her
09. Patience
10. Mr. Brownstone
11. Move To The City


Album Released: 1993


foobar2000 1.1.7 / Dynamic Range Meter 1.1.0
log date: 2013-02-13 00:28:49

––––––––––––––––––––––––––––––––––––––––
Analyzed: Guns N' Roses / Unplugged
––––––––––––––––––––––––––––––––––––––––

DR Peak RMS Duration Track
––––––––––––––––––––––––––––––––––––––––
DR10 -0.13 dB -11.41 dB 4:17 01-Dead Flowers
DR11 -0.57 dB -13.18 dB 3:06 02-You Ain't The First
DR10 -0.12 dB -11.38 dB 5:31 03-You're Crazy
DR9 -0.98 dB -11.52 dB 3:32 04-Used To Love Her
DR10 -0.31 dB -12.17 dB 8:14 05-Medley: Patience, Imagine
DR10 0.00 dB -10.90 dB 8:00 06-Knockin' On Heaven's Door
DR10 0.00 dB -13.65 dB 7:18 07-One In A Million
DR9 0.00 dB -13.11 dB 2:48 08-Used To Love Her
DR10 0.00 dB -14.60 dB 7:10 09-Patience
DR9 -1.68 dB -13.78 dB 4:58 10-Mr. Brownstone
DR11 0.00 dB -13.11 dB 3:34 11-Move To The City
––––––––––––––––––––––––––––––––––––––––

Number of tracks: 11
Official DR value: DR10

Samplerate: 44100 Hz
Channels: 2
Bits per sample: 16
Bitrate: 883 kbps
Codec: FLAC
================================================================================

Guns N' Roses - Unplugged (1993)

Ripped and Scanned from the Stadium Studios Library February 2013
5% WinRar Recovery