Tags
Language
Tags
February 2024
Su Mo Tu We Th Fr Sa
28 29 30 31 1 2 3
4 5 6 7 8 9 10
11 12 13 14 15 16 17
18 19 20 21 22 23 24
25 26 27 28 29 1 2
Attention❗ To save your time, in order to download anything on this site, you must be registered 👉 HERE. If you do not have a registration yet, it is better to do it right away. ✌

( • )( • ) ( ͡⚆ ͜ʖ ͡⚆ ) (‿ˠ‿)
SpicyMags.xyz

Gustav Leonhardt, La Petite Bande - Lully: Le Bourgeois gentilhomme; Campra: L'Europe galante (2010)

Posted By: ArlegZ
Gustav Leonhardt, La Petite Bande - Lully: Le Bourgeois gentilhomme; Campra: L'Europe galante (2010)

Gustav Leonhardt, La Petite Bande - Lully: Le Bourgeois gentilhomme; Campra: L'Europe galante (2010)
EAC | FLAC | Image (Cue & Log) ~ 594 Mb | Total time: 134:10 | Scans included
Classical | Label: Deutsche Harmonia Mundi | 88697576312 | Recorded: 1973

This two-CD album brings together the two earliest recordings by La Petite Bande. They were made in 1973 and feature landmarks in two important French forms of entertainment—comedie-ballet and opera-ballet. Performed in 1670 at Chambord, one of Louis XIV's grandest country retreats, Le bourgeois gentilhomme was the high water mark of Lully's collaboration with Moliere and was to be the last work of its kind on which the two worked together. Moliere developed the comedie-ballet from the fashionable court ballets, working the dances and music into the body of the play with unparalleled skill. Lully, himself a dancer, proved a gifted partner as the music for Le bourgeois gentilhomme reveals.
The second item is a dance suite from L'Europe galante, Campra's opera-ballet. It was the earliest work of its kind and was first performed in Paris in 1697. Here Leonhardt sensibly intersperses instrumental numbers with vocal airs, including two of the three which Campra's contemporary, Destouches anonymously contributed. In both works La Petite Bande plays with spirit if not always with finesse, but the singing in Le bourgeois gentilhomme is variable.
–Gramophone

Performer:
Rachel Yakar, soprano
Marijanne Kweksilber, soprano
René Jacobs, countertenor
La Petite Bande
Conductor - Gustav Leonhardt

Track List:
CD1:
Lully/Molière - Le Bourgeois gentilhomme
01. Ouverture
02. Air. L'élève de Musique
03. Air. La Musicienne
04. Dialogue en Musique
05. Air
06. 1er Air
07. 2e Air (Gavotte)
08. 1ère chanson à boire
09. 2e chanson à boire
10. La Cérémonie Turque
11. Ballet des Nations: Première Entrée
12. Ballet des Nations: Seconde Entrée
13. Ballet des Nations: Troisième Entrée
CD2:
01. Ballet des Nations: Quatrière Entrée
02. Ballet des Nations: Cinquière Entrée
03. Ballet des Nations: Sixière Entrée
André Campra - L'Europe galante
04. Prologue. Ouverture
05. Air. La Discorde et Vénus: Quelle soudaine horreur
La France
06. Air. Céphise: Paisibles lieux (André Destouches)
07. Air. Un Berger: Soûpirons tous
08. Passepied I et II
L'Espagne
09. Air. Dom Pedro: Sommeil
10. 1er Air pour les Espagnols (Loure)
11. Air: El esperar en amor
12. 2er Air. Rondeau
L'Italie
13. Air pour les Masques
14. Air italien: Ad an cuore tutto geloso
15. La Forlana
16. Menuet
La Turquie
17. Air. Zaïde: Mes Yeux (André Destouches)
18. Passacaille
19. Air. La Discorde et Vénus: C'en est fait


Exact Audio Copy V1.3 from 2. September 2016

EAC extraction logfile from 21. October 2019, 11:46

Gustav Leonhardt, La Petite Bande / Lully, Molière - Le bourgeois gentilhomme

Used drive : PIONEER DVD-RW DVR-218L Adapter: 1 ID: 0

Read mode : Secure
Utilize accurate stream : Yes
Defeat audio cache : Yes
Make use of C2 pointers : No

Read offset correction : 6
Overread into Lead-In and Lead-Out : No
Fill up missing offset samples with silence : Yes
Delete leading and trailing silent blocks : No
Null samples used in CRC calculations : Yes
Used interface : Native Win32 interface for Win NT & 2000

Used output format : User Defined Encoder
Selected bitrate : 128 kBit/s
Quality : High
Add ID3 tag : No
Command line compressor : C:\Program Files\Exact Audio Copy\FLAC\FLAC.EXE
Additional command line options : -V -8 -T "Date=%year%" -T "Genre=%genre%" %source%


TOC of the extracted CD

Track | Start | Length | Start sector | End sector
––––––––––––––––––––––––––––-
1 | 0:00.32 | 3:01.73 | 32 | 13679
2 | 3:02.30 | 2:42.07 | 13680 | 25836
3 | 5:44.37 | 1:29.58 | 25837 | 32569
4 | 7:14.20 | 14:05.15 | 32570 | 95959
5 | 21:19.35 | 3:14.30 | 95960 | 110539
6 | 24:33.65 | 1:12.25 | 110540 | 115964
7 | 25:46.15 | 1:02.65 | 115965 | 120679
8 | 26:49.05 | 0:44.00 | 120680 | 123979
9 | 27:33.05 | 1:20.45 | 123980 | 130024
10 | 28:53.50 | 14:13.10 | 130025 | 194009
11 | 43:06.60 | 8:42.05 | 194010 | 233164
12 | 51:48.65 | 1:15.05 | 233165 | 238794
13 | 53:03.70 | 12:56.42 | 238795 | 297036


Range status and errors

Selected range

Filename C:\ArlegZ\Lully, Molière - Le bourgeois gentilhomme.wav

Peak level 90.7 %
Extraction speed 2.1 X
Range quality 100.0 %
Test CRC E5CDF86D
Copy CRC E5CDF86D
Copy OK

No errors occurred


AccurateRip summary

Track 1 accurately ripped (confidence 46) [D11EC4FB] (AR v2)
Track 2 accurately ripped (confidence 46) [CBE7D42A] (AR v2)
Track 3 accurately ripped (confidence 46) [0FE58AF0] (AR v2)
Track 4 accurately ripped (confidence 46) [2D25708E] (AR v2)
Track 5 accurately ripped (confidence 46) [4B094971] (AR v2)
Track 6 accurately ripped (confidence 46) [3D4858D6] (AR v2)
Track 7 accurately ripped (confidence 46) [7380A86E] (AR v2)
Track 8 accurately ripped (confidence 46) [4926AF0A] (AR v2)
Track 9 accurately ripped (confidence 46) [6B794E03] (AR v2)
Track 10 accurately ripped (confidence 46) [94BB53CD] (AR v2)
Track 11 accurately ripped (confidence 46) [3D11AB00] (AR v2)
Track 12 accurately ripped (confidence 46) [7E3F762D] (AR v2)
Track 13 accurately ripped (confidence 46) [CA7858D6] (AR v2)

All tracks accurately ripped

End of status report

==== Log checksum B0374A16225028C2F4CA0706EAEF11C896E92EA1FD745A7AD71FA6C451C3C9C4 ====


Exact Audio Copy V1.3 from 2. September 2016

EAC extraction logfile from 21. October 2019, 12:53

Gustav Leonhardt, La Petite Bande / Lully - Le bourgeois gentilhomme, Campra - L'Europe galante

Used drive : PIONEER DVD-RW DVR-218L Adapter: 1 ID: 0

Read mode : Secure
Utilize accurate stream : Yes
Defeat audio cache : Yes
Make use of C2 pointers : No

Read offset correction : 6
Overread into Lead-In and Lead-Out : No
Fill up missing offset samples with silence : Yes
Delete leading and trailing silent blocks : No
Null samples used in CRC calculations : Yes
Used interface : Native Win32 interface for Win NT & 2000

Used output format : User Defined Encoder
Selected bitrate : 128 kBit/s
Quality : High
Add ID3 tag : No
Command line compressor : C:\Program Files\Exact Audio Copy\FLAC\FLAC.EXE
Additional command line options : -V -8 -T "Date=%year%" -T "Genre=%genre%" %source%


TOC of the extracted CD

Track | Start | Length | Start sector | End sector
––––––––––––––––––––––––––––-
1 | 0:00.33 | 9:31.35 | 33 | 42892
2 | 9:31.68 | 5:51.72 | 42893 | 69289
3 | 15:23.65 | 3:01.35 | 69290 | 82899
4 | 18:25.25 | 4:14.60 | 82900 | 102009
5 | 22:40.10 | 6:51.48 | 102010 | 132882
6 | 29:31.58 | 2:38.62 | 132883 | 144794
7 | 32:10.45 | 3:32.23 | 144795 | 160717
8 | 35:42.68 | 2:23.70 | 160718 | 171512
9 | 38:06.63 | 6:17.17 | 171513 | 199804
10 | 44:24.05 | 2:08.13 | 199805 | 209417
11 | 46:32.18 | 2:36.70 | 209418 | 221187
12 | 49:09.13 | 1:33.10 | 221188 | 228172
13 | 50:42.23 | 1:13.02 | 228173 | 233649
14 | 51:55.25 | 3:50.55 | 233650 | 250954
15 | 55:46.05 | 1:16.63 | 250955 | 256717
16 | 57:02.68 | 1:18.62 | 256718 | 262629
17 | 58:21.55 | 3:55.15 | 262630 | 280269
18 | 62:16.70 | 3:34.05 | 280270 | 296324
19 | 65:51.00 | 2:16.25 | 296325 | 306549


Range status and errors

Selected range

Filename C:\ArlegZ\Lully - Le bourgeois gentilhomme, Campra - L'Europe galante.wav

Peak level 92.0 %
Extraction speed 2.1 X
Range quality 100.0 %
Test CRC 9480C29C
Copy CRC 9480C29C
Copy OK

No errors occurred


AccurateRip summary

Track 1 accurately ripped (confidence 2) [05FAC568] (AR v2)
Track 2 accurately ripped (confidence 2) [3908C0AD] (AR v2)
Track 3 accurately ripped (confidence 2) [7115906C] (AR v2)
Track 4 accurately ripped (confidence 2) [22EF5DAC] (AR v2)
Track 5 accurately ripped (confidence 2) [88CD6084] (AR v2)
Track 6 accurately ripped (confidence 2) [7135E0FE] (AR v2)
Track 7 accurately ripped (confidence 2) [A8A9E3E4] (AR v2)
Track 8 accurately ripped (confidence 2) [FA2DC614] (AR v2)
Track 9 accurately ripped (confidence 2) [A46CE289] (AR v2)
Track 10 accurately ripped (confidence 2) [0E2CB57F] (AR v2)
Track 11 accurately ripped (confidence 2) [288DC086] (AR v2)
Track 12 accurately ripped (confidence 2) [1C33FC3F] (AR v2)
Track 13 accurately ripped (confidence 2) [50B7FA32] (AR v2)
Track 14 accurately ripped (confidence 2) [6EE6A6D2] (AR v2)
Track 15 accurately ripped (confidence 2) [8CF29E81] (AR v2)
Track 16 accurately ripped (confidence 2) [0318EE66] (AR v2)
Track 17 accurately ripped (confidence 2) [D82F48FA] (AR v2)
Track 18 accurately ripped (confidence 2) [E9AEBB09] (AR v2)
Track 19 accurately ripped (confidence 2) [F4E1A1BC] (AR v2)

All tracks accurately ripped

End of status report

==== Log checksum 93B942DE14C155A2662AFE067837D0993A43F9DB9AA67C1D0748484521754B0C ====

Gustav Leonhardt, La Petite Bande - Lully: Le Bourgeois gentilhomme; Campra: L'Europe galante (2010)

Thanks to the original releaser