Subcategories

Guy Evans & Peter Hammill - The Union Chapel Concert (1997)

Posted By: v3122
Guy Evans & Peter Hammill - The Union Chapel Concert (1997)

Guy Evans & Peter Hammill - The Union Chapel Concert (1997)
EAC | Flac(Image) + Cue + Log & MP3 CBR 320Kbps
2CD | FIE9115 | ~ 752 or 295 Mb | Scans Included
Progressive Rock

A one-time event stemming from an offer to percussionist Guy Evans to do anything he wanted at the Union Chapel in London. An idea to collaborate with Peter Hammill on a variety of semi- improvisational material partly built on samples of Hammill's music soon expanded to incorporate more traditional performance ideas as well as connections to Evans' own colleagues in the Echo City troupe. By the time the planning stage was over, Hammill and Evans had decided to bring in members of Echo City, regular Hammill collaborator Stuart Gordon, drummer Manny Elias, and, to cap things off, longtime Van Der Graaf members Hugh Banton (who had retired to a life of organ-building) and David Jackson, who not only turned up with sax and flute in hand, but with his Soundbeam rig as well.

The resulting live album, spread over two discs, is an impressive document. It is certainly Evans' show all the way, with some of the best drumming Evans has ever captured on record, though Hammill gives a good account of himself – as Evans says in his sleeve notes, Hammill instantly took up the gauntlet that Evans threw down. As a result, the album includes some of Hammill's best live playing, including a ferocious reading of "Accidents." For some, though, the highlight will most likely be the rousing, 15-minute performance of "Lemmings," which amounts to a Van Der Graaf Generator reunion. There is, however, far more to recommend this two-CD set. By far one of the most powerful Hammill showings to date.

by Steven McDonald, AMG
Guy Evans & Peter Hammill - The Union Chapel Concert (1997)


Guy Evans & Peter Hammill - The Union Chapel Concert (1997):

Guy Evans & Peter Hammill - The Union Chapel Concert (1997)

Tracklist CD1:

Introduction
Fireworks
A Forest of Pronouns
Anatol's Proposal
After the Show
Roger and Out
Accidents
Soundbeam medley (Four Kinds of Rice/Hello/Resolution)
Women of Ireland
Ship of Fools

Exact Audio Copy V0.99 prebeta 3 from 28. July 2007

EAC extraction logfile from 24. February 2008, 15:50

Guy Evans & Peter Hammill / The Union Chapel Concert (Disc 1)

Used drive : PLEXTOR CD-R PX-W2410A Adapter: 3 ID: 0

Read mode : Secure
Utilize accurate stream : Yes
Defeat audio cache : Yes
Make use of C2 pointers : No

Read offset correction : 98
Overread into Lead-In and Lead-Out : No
Fill up missing offset samples with silence : Yes
Delete leading and trailing silent blocks : No
Null samples used in CRC calculations : Yes
Used interface : Installed external ASPI interface

Used output format : User Defined Encoder
Selected bitrate : 1024 kBit/s
Quality : High
Add ID3 tag : No
Command line compressor : C:\Program Files\WavPack\wavpack.exe
Additional command line options : -h -ml %s %d


TOC of the extracted CD

Track | Start | Length | Start sector | End sector
––––––––––––––––––––––––––––-
1 | 0:00.00 | 0:40.70 | 0 | 3069
2 | 0:40.70 | 3:50.57 | 3070 | 20376
3 | 4:31.52 | 7:53.23 | 20377 | 55874
4 | 12:25.00 | 4:09.45 | 55875 | 74594
5 | 16:34.45 | 8:07.05 | 74595 | 111124
6 | 24:41.50 | 3:18.00 | 111125 | 125974
7 | 27:59.50 | 9:15.00 | 125975 | 167599
8 | 37:14.50 | 11:32.00 | 167600 | 219499
9 | 48:46.50 | 2:03.25 | 219500 | 228749
10 | 50:50.00 | 7:44.53 | 228750 | 263602


Range status and errors

Selected range

Filename D:\EAC\PH Misc\Guy Evans & Peter Hammill (1997) - The Union Chapel Concert\Guy Evans & Peter Hammill - The Union Chapel Concert (Disc 1).wav

Peak level 99.7 %
Range quality 100.0 %
Copy CRC 2FCF6B81
Copy OK

No errors occurred


AccurateRip summary

Track 1 not present in database
Track 2 not present in database
Track 3 not present in database
Track 4 not present in database
Track 5 not present in database
Track 6 not present in database
Track 7 not present in database
Track 8 not present in database
Track 9 not present in database
Track 10 not present in database

None of the tracks are present in the AccurateRip database

End of status report

foobar2000 1.2.9 / Dynamic Range Meter 1.1.1
log date: 2016-02-02 06:44:48

––––––––––––––––––––––––––––––––––––––––
Analyzed: Guy Evans & Peter Hammill / The Union Chapel Concert (Disc 1)
––––––––––––––––––––––––––––––––––––––––

DR Peak RMS Duration Track
––––––––––––––––––––––––––––––––––––––––
DR14 -18.47 dB -36.77 dB 0:41 01-Introduction
DR12 -1.94 dB -19.57 dB 3:51 02-Fireworks
DR12 -1.19 dB -17.83 dB 7:53 03-A Forest of Pronouns
DR14 -3.50 dB -20.93 dB 4:10 04-Anatol's Proposal
DR17 -1.29 dB -21.89 dB 8:07 05-After the Show
DR14 -2.86 dB -20.57 dB 3:18 06-Roger and Out
DR10 -0.02 dB -13.87 dB 9:15 07-Accidents
DR15 -1.30 dB -21.05 dB 11:32 08-Soundbeam medley (Four Kinds of Rice/Hello/Resolution)
DR11 -11.51 dB -24.92 dB 2:03 09-Women of Ireland
DR9 -2.40 dB -14.77 dB 7:45 10-Ship of Fools
––––––––––––––––––––––––––––––––––––––––

Number of tracks: 10
Official DR value: DR13

Samplerate: 44100 Hz
Channels: 2
Bits per sample: 16
Bitrate: 802 kbps
Codec: FLAC

[CUETools log; Date: 02.02.2016 6:44:37; Version: 2.1.4]
[CTDB TOCID: pn4lmz5bjITfWbL5PDqMQ9KY6Tw-] found.
Track | CTDB Status
1 | (11/11) Accurately ripped
2 | (11/11) Accurately ripped
3 | (11/11) Accurately ripped
4 | (11/11) Accurately ripped
5 | (11/11) Accurately ripped
6 | (11/11) Accurately ripped
7 | (11/11) Accurately ripped
8 | (11/11) Accurately ripped
9 | (11/11) Accurately ripped
10 | (11/11) Accurately ripped
[AccurateRip ID: 001362c6-00a3826b-8a0dba0a] found.
Track [ CRC | V2 ] Status
01 [986f4d64|76d58bad] (09+12/28) Accurately ripped
02 [85489871|fff6a59b] (09+12/28) Accurately ripped
03 [4b2a1ac9|e62ae58a] (09+12/28) Accurately ripped
04 [02ff6eed|43d033f4] (09+12/28) Accurately ripped
05 [b1ed3085|cb8b2bee] (09+12/28) Accurately ripped
06 [ba7c54fa|914114ae] (09+12/28) Accurately ripped
07 [a0e18c1e|cf1e2b91] (09+12/28) Accurately ripped
08 [1e46a988|e407fe08] (09+12/28) Accurately ripped
09 [d0400dca|db2eb0e2] (09+12/28) Accurately ripped
10 [52eb6444|54d653dd] (09+12/28) Accurately ripped
Offsetted by -760:
01 [3fb4f1bf] (07/28) Accurately ripped
02 [b8f43ba1] (07/28) Accurately ripped
03 [a72b1634] (07/28) Accurately ripped
04 [f6568f85] (07/28) Accurately ripped
05 [e47fa5d5] (07/28) Accurately ripped
06 [afde4de9] (07/28) Accurately ripped
07 [50007e77] (07/28) Accurately ripped
08 [2615dc6d] (07/28) Accurately ripped
09 [94aae768] (07/28) Accurately ripped
10 [7e26b39c] (07/28) Accurately ripped
Offsetted by -664:
01 [1cdb82d3] (00/28) No match (V2 was not tested)
02 [a581177f] (00/28) No match (V2 was not tested)
03 [a8968a3b] (00/28) No match (V2 was not tested)
04 [52b217e1] (00/28) No match (V2 was not tested)
05 [46313b86] (00/28) No match (V2 was not tested)
06 [80e77e85] (00/28) No match (V2 was not tested)
07 [e9b81c28] (00/28) No match (V2 was not tested)
08 [5cf3610a] (00/28) No match (V2 was not tested)
09 [775ce0a9] (00/28) No match (V2 was not tested)
10 [a1f0cf22] (00/28) No match (V2 was not tested)

Track Peak [ CRC32 ] [W/O NULL] [ LOG ]
– 99,7 [2FCF6B81] [F12B3247] CRC32
01 11,9 [66CAA047] [3D8C5DBE]
02 79,9 [FBE82FE7] [55E69A8F]
03 87,1 [CF79DE5D] [25FF7C46]
04 66,8 [EF466619] [235C1E43]
05 86,2 [396A5274] [9E6195AA]
06 71,9 [B376A30A] [86738FE5]
07 99,7 [1F05011E] [953BE17D]
08 86,0 [F1A0305F] [EFE7FC5B]
09 26,5 [910995E9] [122F752F]
10 75,8 [13761B26] [43AFAB6D]

Guy Evans & Peter Hammill - The Union Chapel Concert (1997)

Tracklist CD2:

Hamburg Station
Seven Wonders
Adagio for Strings
Red Shift
Lemmings
Outroduction
Traintime

Exact Audio Copy V0.99 prebeta 3 from 28. July 2007

EAC extraction logfile from 24. February 2008, 16:08

Guy Evans & Peter Hammill / The Union Chapel Concert (Disc 2)

Used drive : PLEXTOR CD-R PX-W2410A Adapter: 3 ID: 0

Read mode : Secure
Utilize accurate stream : Yes
Defeat audio cache : Yes
Make use of C2 pointers : No

Read offset correction : 98
Overread into Lead-In and Lead-Out : No
Fill up missing offset samples with silence : Yes
Delete leading and trailing silent blocks : No
Null samples used in CRC calculations : Yes
Used interface : Installed external ASPI interface

Used output format : User Defined Encoder
Selected bitrate : 1024 kBit/s
Quality : High
Add ID3 tag : No
Command line compressor : C:\Program Files\WavPack\wavpack.exe
Additional command line options : -h -ml %s %d


TOC of the extracted CD

Track | Start | Length | Start sector | End sector
––––––––––––––––––––––––––––-
1 | 0:00.00 | 3:50.00 | 0 | 17249
2 | 3:50.00 | 10:14.25 | 17250 | 63324
3 | 14:04.25 | 9:31.55 | 63325 | 106204
4 | 23:36.05 | 10:49.70 | 106205 | 154949
5 | 34:26.00 | 15:19.00 | 154950 | 223874
6 | 49:45.00 | 3:16.00 | 223875 | 238574
7 | 53:01.00 | 7:38.58 | 238575 | 272982


Range status and errors

Selected range

Filename D:\EAC\PH Misc\Guy Evans & Peter Hammill (1997) - The Union Chapel Concert\Guy Evans & Peter Hammill - The Union Chapel Concert (Disc 2).wav

Peak level 100.0 %
Range quality 99.9 %
Copy CRC 1AB2BB71
Copy OK

No errors occurred


AccurateRip summary

Track 1 not present in database
Track 2 not present in database
Track 3 not present in database
Track 4 not present in database
Track 5 not present in database
Track 6 not present in database
Track 7 not present in database

None of the tracks are present in the AccurateRip database

End of status report

foobar2000 1.2.9 / Dynamic Range Meter 1.1.1
log date: 2016-02-02 06:45:10

––––––––––––––––––––––––––––––––––––––––
Analyzed: Guy Evans & Peter Hammill / The Union Chapel Concert (Disc 2)
––––––––––––––––––––––––––––––––––––––––

DR Peak RMS Duration Track
––––––––––––––––––––––––––––––––––––––––
DR11 -3.89 dB -21.26 dB 3:50 01-Hamburg Station
DR12 0.00 dB -15.08 dB 10:14 02-Seven Wonders
DR13 -4.42 dB -22.32 dB 9:32 03-Adagio for Strings
DR10 -0.03 dB -14.29 dB 10:50 04-Red Shift
DR11 -0.01 dB -14.71 dB 15:19 05-Lemmings
DR20 -0.54 dB -25.10 dB 3:16 06-Outroduction
DR9 -2.03 dB -14.71 dB 7:39 07-Traintime
––––––––––––––––––––––––––––––––––––––––

Number of tracks: 7
Official DR value: DR12

Samplerate: 44100 Hz
Channels: 2
Bits per sample: 16
Bitrate: 877 kbps
Codec: FLAC

[CUETools log; Date: 02.02.2016 6:45:00; Version: 2.1.4]
[CTDB TOCID: IFy1UnnRUmIdbVYws2nxRr.qvlo-] found.
Track | CTDB Status
1 | (11/11) Accurately ripped
2 | (11/11) Accurately ripped
3 | (11/11) Accurately ripped
4 | (11/11) Accurately ripped
5 | (11/11) Accurately ripped
6 | (11/11) Accurately ripped
7 | ( 9/11) Accurately ripped, or (2/11) differs in 3042 samples @02:26:71,03:33:39,03:33:58-03:33:59,03:34:22,03:34:41-03:34:42,03:35:45,03:35:64,03:36:27-03:36:28,03:36:47-03:36:48,03:37:11-03:37:12,03:37:30-03:37:31,03:37:50-03:37:51,03:38:13-03:38:14,03:38:33-03:38:34,03:38:52-03:38:53,03:38:72,03:39:16-03:39:17,03:39:55-03:39:56,03:40:00-03:40:01,03:40:19-03:40:20,03:40:38-03:40:39,03:40:58-03:40:59,03:41:02-03:41:03,03:41:22-03:41:23,03:41:41-03:41:42,03:41:61-03:41:62,03:42:05-03:42:06,03:42:25-03:42:26,03:42:44-03:42:45,03:42:63-03:42:64,03:43:08,03:43:27-03:43:29,03:43:47-03:43:48,03:44:11-03:44:12,03:44:30,03:44:50-03:44:51,03:44:69,03:45:14,03:45:33-03:45:34,03:45:52-03:45:54,03:45:72-03:45:73,03:46:16-03:46:17,03:46:36-03:46:37,03:46:55-03:46:56,03:47:00-03:47:01,03:47:19-03:47:20,03:47:39-03:47:40,03:47:58-03:47:59,03:48:03-03:48:04,03:48:22-03:48:23,03:49:05-03:49:06,03:49:25-03:49:26,03:49:44-03:49:45,03:50:08-03:50:09,03:50:28,03:50:47-03:50:48,03:50:67,03:51:11-03:51:12,03:51:31-03:51:32,03:51:50-03:51:51,03:51:70-03:51:71,03:52:14,03:52:33-03:52:34,03:52:53,03:52:72-03:52:74,03:53:17-03:53:18,03:53:36-03:53:37,03:53:56-03:53:57,03:54:00-03:54:01,03:54:39-03:54:40,03:55:03-03:55:04,03:55:23,03:55:42-03:55:43,03:56:07,03:56:45-03:56:46,03:57:09-03:57:10,03:57:29,03:57:48,03:58:12,03:58:51-03:58:52,03:59:73-03:59:74,04:01:01-04:01:02,04:01:60-04:01:61,04:02:04-04:02:05,04:02:43-04:02:44,04:02:63,04:03:66,04:04:69,04:05:13-04:05:14,04:05:52-04:05:53,04:05:72,04:06:16,04:07:58-04:07:59,04:08:61-04:08:62,04:09:25-04:09:26,04:10:48,04:10:67,04:11:51-04:11:52,04:12:34-04:12:35,04:14:60,04:15:63-04:15:64,04:16:66-04:16:67,04:17:11,04:17:50,04:17:69-04:17:70,04:18:33-04:18:34,04:19:37,04:21:63,04:22:27,04:23:10,04:24:13-04:24:14,04:24:33,04:24:52,04:26:39-04:26:40,04:29:49,04:29:68-04:29:69,04:30:71-04:30:72,04:33:03
[AccurateRip ID: 00106fab-00650801-620e3707] found.
Track [ CRC | V2 ] Status
01 [c8ec2b96|71f55d31] (08+10/25) Accurately ripped
02 [c705d809|a99f6c25] (08+10/25) Accurately ripped
03 [58ff6e4a|7f43e740] (08+10/25) Accurately ripped
04 [7cfb5919|1bd73bc0] (08+10/25) Accurately ripped
05 [7ef96f6f|f229d43b] (08+10/25) Accurately ripped
06 [3ccd0f91|2bca5c94] (09+10/26) Accurately ripped
07 [2243ede9|6efa2a0e] (09+10/26) Accurately ripped
Offsetted by -1328:
01 [b2b30252] (00/25) No match (V2 was not tested)
02 [9c628be9] (00/25) No match (V2 was not tested)
03 [b5c5f145] (00/25) No match (V2 was not tested)
04 [48e18f7a] (00/25) No match (V2 was not tested)
05 [4c081176] (00/25) No match (V2 was not tested)
06 [bd031b11] (00/26) No match (V2 was not tested)
07 [3aeb79ab] (00/26) No match (V2 was not tested)
Offsetted by -760:
01 [49989679] (07/25) Accurately ripped
02 [755f5fb8] (07/25) Accurately ripped
03 [a77a6234] (07/25) Accurately ripped
04 [3e00688a] (07/25) Accurately ripped
05 [61e20a75] (07/25) Accurately ripped
06 [19931539] (07/26) Accurately ripped
07 [0ed6f728] (00/26) No match (V2 was not tested)
Offsetted by -664:
01 [e90b0481] (00/25) No match (V2 was not tested)
02 [90bfa879] (00/25) No match (V2 was not tested)
03 [4a126b8c] (00/25) No match (V2 was not tested)
04 [d804a826] (00/25) No match (V2 was not tested)
05 [e1754fd8] (00/25) No match (V2 was not tested)
06 [c907539e] (00/26) No match (V2 was not tested)
07 [22cbe70c] (00/26) No match (V2 was not tested)

Track Peak [ CRC32 ] [W/O NULL] [ LOG ]
– 100,0 [1AB2BB71] [4AEDF03A] CRC32
01 63,9 [1191CF5C] [541CF756]
02 100,0 [9AAD9EAE] [B138CA3B]
03 60,0 [165AB1AC] [EA2DB561]
04 99,6 [003C5C0C] [FD3F1588]
05 99,8 [11760A2C] [7C6287C5]
06 93,9 [3DDE559A] [86066A3E]
07 79,1 [9CA32E56] [3A287027]

Guy Evans & Peter Hammill - The Union Chapel Concert (1997)

All thanks go to Monkman

Peter Hammill in my Blog

Download Guy Evans & Peter Hammill - The Union Chapel Concert (1997):