Subcategories

Gyorgy Ligeti - The Ligeti Project (2008) (5 CD Box Set)

Posted By: murena
Gyorgy Ligeti - The Ligeti Project (2008) (5 CD Box Set)

Gyorgy Ligeti - The Ligeti Project (2008) (5 CD Box Set)
EAC Rip | FLAC (Image+.cue, log) | 05:26:35 min | 1,16 Gb | Scans -> 43 mb
Genre: Classical / Label: Teldec

This Teldec collection was a project close to György Ligeti’s heart – the pioneering Hungarian composer was actively involved in the recording process up until his death in 2006. The artists had long-standing relationships with Ligeti and his work, both in the studio and in concert: pianist Pierre-Laurent Aimard, the Berlin Philharmonic, the Schönberg and Asko Ensembles led by Reinbert de Leeuw. The liner notes, written by Ligeti himself, contain a brilliant and illustrative essay about the genesis and composition of each work. From the massed sonic clouds of the orchestral masterpiece Atmosphères to rarities like Elgar Howarth’s arrangements of excerpts from the opera Le Grand Macabre and Max Bonnay’s accordion transcription of Musica Ricercata, this 5-CD set reveals the iconoclastic genius of Ligeti as well as his sharp musical sense of humour.

Gyorgy Ligeti - The Ligeti Project (2008) (5 CD Box Set)


Tracklist:

Disc: 1
1. Ligeti : Melodien
2. Ligeti : Chamber Concerto : I Corrente
3. "Ligeti : Chamber Concerto : II Calmo, sostenuto"
4. Ligeti : Chamber Concerto : III Movimento preciso e meccanico
5. Ligeti : Chamber Concerto : IV Presto
6. Ligeti : Piano Concerto : I Vivace molto ritmico e preciso
7. Ligeti : Piano Concerto : II Lento e deserto
8. Ligeti : Piano Concerto : III Vivace cantabile
9. "Ligeti : Piano Concerto : IV Allegro risoluto, molto ritmico"
10. Ligeti : Piano Concerto : V Presto luminoso
11. Ligeti : Mysteries of the Macabre

Exact Audio Copy V0.99 prebeta 5 from 4. May 2009

EAC extraction logfile from 2. December 2010, 0:09

Gyorgy Ligeti / THE LIGETI PROJECT (Disc 1)

Used drive : Optiarc DVD RW AD-7233S Adapter: 0 ID: 1

Read mode : Secure
Utilize accurate stream : Yes
Defeat audio cache : Yes
Make use of C2 pointers : No

Read offset correction : 48
Overread into Lead-In and Lead-Out : No
Fill up missing offset samples with silence : Yes
Delete leading and trailing silent blocks : No
Null samples used in CRC calculations : Yes
Used interface : Native Win32 interface for Win NT & 2000

Used output format : User Defined Encoder
Selected bitrate : 128 kBit/s
Quality : High
Add ID3 tag : No
Command line compressor : C:\Program Files\Exact Audio Copy\Flac\flac.exe
Additional command line options : -8 -V -T "ARTIST=%a" -T "TITLE=%t" -T "ALBUM=%g" -T "DATE=%y" -T "TRACKNUMBER=%n" -T "GENRE=%m" -T "COMMENT=EAC FLAC -8" %s


TOC of the extracted CD

Track | Start | Length | Start sector | End sector
––––––––––––––––––––––––––––-
1 | 0:00.00 | 13:12.00 | 0 | 59399
2 | 13:12.00 | 5:47.72 | 59400 | 85496
3 | 18:59.72 | 6:18.65 | 85497 | 113911
4 | 25:18.62 | 3:35.18 | 113912 | 130054
5 | 28:54.05 | 3:38.52 | 130055 | 146456
6 | 32:32.57 | 4:05.45 | 146457 | 164876
7 | 36:38.27 | 6:44.13 | 164877 | 195189
8 | 43:22.40 | 4:12.07 | 195190 | 214096
9 | 47:34.47 | 4:50.65 | 214097 | 235911
10 | 52:25.37 | 3:42.05 | 235912 | 252566
11 | 56:07.42 | 7:57.18 | 252567 | 288359


Range status and errors

Selected range

Filename K:\Мои раздачи\Музыка\Ligeti\CD1\Gyorgy Ligeti - THE LIGETI PROJECT.wav

Peak level 100.0 %
Range quality 100.0 %
Test CRC 859B9E6C
Copy CRC 859B9E6C
Copy OK

No errors occurred


AccurateRip summary

Track 1 accurately ripped (confidence 27) [1CCE5DD3]
Track 2 accurately ripped (confidence 27) [4DE5B13A]
Track 3 accurately ripped (confidence 27) [FEBE6AB0]
Track 4 accurately ripped (confidence 27) [353A754B]
Track 5 accurately ripped (confidence 27) [9DB7EDCC]
Track 6 accurately ripped (confidence 27) [DE7AC3B2]
Track 7 accurately ripped (confidence 27) [F95AC767]
Track 8 accurately ripped (confidence 27) [99DAA937]
Track 9 accurately ripped (confidence 27) [874FDB8E]
Track 10 accurately ripped (confidence 27) [5DCB8D4E]
Track 11 accurately ripped (confidence 27) [7C05196E]

All tracks accurately ripped

End of status report


Disc: 2
1. Ligeti : Lontano
2. Ligeti : Atmosphères
3. Ligeti : Apparitions : I Lento
4. Ligeti : Apparitions : II Agitato
5. Ligeti : San Francisco Polyphony
6. Ligeti : Romanian Concerto : I Andantino
7. Ligeti : Romanian Concerto : II Allegro vivace
8. "Ligeti : Romanian Concerto : III Adagio, ma non troppo"
9. Ligeti : Romanian Concerto : III Molto vivace

Exact Audio Copy V0.99 prebeta 5 from 4. May 2009

EAC extraction logfile from 2. December 2010, 0:48

Gyorgy Ligeti / THE LIGETI PROJECT (Disc 2)

Used drive : Optiarc DVD RW AD-7233S Adapter: 0 ID: 1

Read mode : Secure
Utilize accurate stream : Yes
Defeat audio cache : Yes
Make use of C2 pointers : No

Read offset correction : 48
Overread into Lead-In and Lead-Out : No
Fill up missing offset samples with silence : Yes
Delete leading and trailing silent blocks : No
Null samples used in CRC calculations : Yes
Used interface : Native Win32 interface for Win NT & 2000

Used output format : User Defined Encoder
Selected bitrate : 128 kBit/s
Quality : High
Add ID3 tag : No
Command line compressor : C:\Program Files\Exact Audio Copy\Flac\flac.exe
Additional command line options : -8 -V -T "ARTIST=%a" -T "TITLE=%t" -T "ALBUM=%g" -T "DATE=%y" -T "TRACKNUMBER=%n" -T "GENRE=%m" -T "COMMENT=EAC FLAC -8" %s


TOC of the extracted CD

Track | Start | Length | Start sector | End sector
––––––––––––––––––––––––––––-
1 | 0:00.00 | 11:45.00 | 0 | 52874
2 | 11:45.00 | 8:57.67 | 52875 | 93216
3 | 20:42.67 | 6:01.08 | 93217 | 120299
4 | 26:44.00 | 2:40.02 | 120300 | 132301
5 | 29:24.02 | 12:56.50 | 132302 | 190551
6 | 42:20.52 | 2:52.58 | 190552 | 203509
7 | 45:13.35 | 1:18.22 | 203510 | 209381
8 | 46:31.57 | 3:00.40 | 209382 | 222921
9 | 49:32.22 | 4:58.70 | 222922 | 245341


Range status and errors

Selected range

Filename K:\Мои раздачи\Музыка\Ligeti\CD2\Gyorgy Ligeti - THE LIGETI PROJECT (Disc 2).wav

Peak level 100.0 %
Range quality 100.0 %
Test CRC 4207235E
Copy CRC 4207235E
Copy OK

No errors occurred


AccurateRip summary

Track 1 accurately ripped (confidence 30) [CEDBAF93]
Track 2 accurately ripped (confidence 30) [5C4340F0]
Track 3 accurately ripped (confidence 30) [A2BE1116]
Track 4 accurately ripped (confidence 30) [4C7AD0A9]
Track 5 accurately ripped (confidence 30) [BD13B472]
Track 6 accurately ripped (confidence 30) [3F104BE0]
Track 7 accurately ripped (confidence 31) [82DA20E9]
Track 8 accurately ripped (confidence 31) [2FD70199]
Track 9 accurately ripped (confidence 30) [F6175E01]

All tracks accurately ripped

End of status report


Disc: 3
1. Ligeti : Cello Concerto : I
2. Ligeti : Cello Concerto : II
3. Ligeti : Clocks and Clouds
4. Ligeti : Violin Concerto : I Vivacissimo luminoso
5. "Ligeti : Violin Concerto : II Aria, Hoquetus, Choral"
6. Ligeti : Violin Concerto : III Intermezzo
7. Ligeti : Violin Concerto : IV Passacaglia
8. Ligeti : Violin Concerto : V Appassionato - Agitato molto
9. "Ligeti : With Pipes, Drums, Fiddles : I Fabula"
10. "Ligeti : With Pipes, Drums, Fiddles : II Táncdal"
11. "Ligeti : With Pipes, Drums, Fiddles : III Kínai templom"
12. "Ligeti : With Pipes, Drums, Fiddles : IV Kuli"
13. "Ligeti : With Pipes, Drums, Fiddles : V Alma álma"
14. "Ligeti : With Pipes, Drums, Fiddles : VI Keserédes"
15. """With Pipes, Drums, Fiddles"" on poems by Sandor Weores : VII. Szajko"

Exact Audio Copy V0.99 prebeta 5 from 4. May 2009

EAC extraction logfile from 2. December 2010, 9:39

Gyorgy Ligeti / THE LIGETI PROJECT (Disc 3)

Used drive : Optiarc DVD RW AD-7233S Adapter: 0 ID: 1

Read mode : Secure
Utilize accurate stream : Yes
Defeat audio cache : Yes
Make use of C2 pointers : No

Read offset correction : 48
Overread into Lead-In and Lead-Out : No
Fill up missing offset samples with silence : Yes
Delete leading and trailing silent blocks : No
Null samples used in CRC calculations : Yes
Used interface : Native Win32 interface for Win NT & 2000

Used output format : User Defined Encoder
Selected bitrate : 128 kBit/s
Quality : High
Add ID3 tag : No
Command line compressor : C:\Program Files\Exact Audio Copy\Flac\flac.exe
Additional command line options : -8 -V -T "ARTIST=%a" -T "TITLE=%t" -T "ALBUM=%g" -T "DATE=%y" -T "TRACKNUMBER=%n" -T "GENRE=%m" -T "COMMENT=EAC FLAC -8" %s


TOC of the extracted CD

Track | Start | Length | Start sector | End sector
––––––––––––––––––––––––––––-
1 | 0:00.00 | 6:56.10 | 0 | 31209
2 | 6:56.10 | 7:32.23 | 31210 | 65132
3 | 14:28.33 | 14:27.69 | 65133 | 130226
4 | 28:56.27 | 4:06.38 | 130227 | 148714
5 | 33:02.65 | 7:35.06 | 148715 | 182845
6 | 40:37.71 | 2:20.13 | 182846 | 193358
7 | 42:58.09 | 6:46.17 | 193359 | 223825
8 | 49:44.26 | 5:53.20 | 223826 | 250320
9 | 55:37.46 | 1:03.59 | 250321 | 255104
10 | 56:41.30 | 0:56.09 | 255105 | 259313
11 | 57:37.39 | 2:15.36 | 259314 | 269474
12 | 59:53.00 | 1:52.11 | 269475 | 277885
13 | 61:45.11 | 2:47.23 | 277886 | 290433
14 | 64:32.34 | 2:28.07 | 290434 | 301540
15 | 67:00.41 | 0:39.73 | 301541 | 304538


Range status and errors

Selected range

Filename K:\Мои раздачи\Музыка\Ligeti\CD3\Gyorgy Ligeti - THE LIGETI PROJECT (Disc 3).wav

Peak level 100.0 %
Range quality 100.0 %
Test CRC CC508685
Copy CRC CC508685
Copy OK

No errors occurred


AccurateRip summary

Track 1 accurately ripped (confidence 23) [7BF6C574]
Track 2 accurately ripped (confidence 23) [67D6ACE5]
Track 3 accurately ripped (confidence 23) [43714579]
Track 4 accurately ripped (confidence 23) [4870B601]
Track 5 accurately ripped (confidence 22) [90D79D8A]
Track 6 accurately ripped (confidence 23) [395042D0]
Track 7 accurately ripped (confidence 23) [B105CD43]
Track 8 accurately ripped (confidence 22) [D8A9190C]
Track 9 accurately ripped (confidence 22) [EC19B2EA]
Track 10 accurately ripped (confidence 23) [CE5EE675]
Track 11 accurately ripped (confidence 23) [F21D4AC0]
Track 12 accurately ripped (confidence 22) [7CB8AFEA]
Track 13 accurately ripped (confidence 22) [6E1150AD]
Track 14 accurately ripped (confidence 23) [E9CB81CA]
Track 15 accurately ripped (confidence 12) [42609F3C]

All tracks accurately ripped

End of status report


Disc: 4
1. Ligeti : Hamburg Concerto : I Praeludium
2. "Ligeti : Hamburg Concerto : II Signale, Tanz, Choral"
3. "Ligeti : Hamburg Concerto : III Aria, Aksak, Hoketus"
4. "Ligeti : Hamburg Concerto : IV Solo, Intermezzo, Mixtur, Kanon"
5. Ligeti : Hamburg Concerto : V Spectra
6. Ligeti : Hamburg Concerto : VI Capriccio
7. Ligeti : Hamburg Concerto : VII Hymnus
8. "Ligeti : Double Concerto : I Calmo, con tenerezza"
9. Ligeti : Double Concerto : II Allegro corrente
10. Ligeti : Ramifications for 12 solo strings
11. Ligeti : Requiem : I Introitus
12. Ligeti : Requiem : II Kyrie
13. Ligeti : Requiem : III De die judicii sequentia
14. Ligeti : Requiem : IV Lacrimosa

Exact Audio Copy V0.99 prebeta 5 from 4. May 2009

EAC extraction logfile from 2. December 2010, 10:14

Gyorgy Ligeti / THE LIGETI PROJECT (Disc 4)

Used drive : Optiarc DVD RW AD-7233S Adapter: 0 ID: 1

Read mode : Secure
Utilize accurate stream : Yes
Defeat audio cache : Yes
Make use of C2 pointers : No

Read offset correction : 48
Overread into Lead-In and Lead-Out : No
Fill up missing offset samples with silence : Yes
Delete leading and trailing silent blocks : No
Null samples used in CRC calculations : Yes
Used interface : Native Win32 interface for Win NT & 2000

Used output format : User Defined Encoder
Selected bitrate : 128 kBit/s
Quality : High
Add ID3 tag : No
Command line compressor : C:\Program Files\Exact Audio Copy\Flac\flac.exe
Additional command line options : -8 -V -T "ARTIST=%a" -T "TITLE=%t" -T "ALBUM=%g" -T "DATE=%y" -T "TRACKNUMBER=%n" -T "GENRE=%m" -T "COMMENT=EAC FLAC -8" %s


TOC of the extracted CD

Track | Start | Length | Start sector | End sector
––––––––––––––––––––––––––––-
1 | 0:00.00 | 2:47.13 | 0 | 12537
2 | 2:47.13 | 1:35.69 | 12538 | 19731
3 | 4:23.07 | 1:05.38 | 19732 | 24644
4 | 5:28.45 | 4:24.18 | 24645 | 44462
5 | 9:52.63 | 2:32.08 | 44463 | 55870
6 | 12:24.71 | 1:09.73 | 55871 | 61118
7 | 13:34.69 | 1:25.38 | 61119 | 67531
8 | 15:00.32 | 8:31.43 | 67532 | 105899
9 | 23:32.00 | 7:55.06 | 105900 | 141530
10 | 31:27.06 | 8:10.43 | 141531 | 178323
11 | 39:37.49 | 5:39.02 | 178324 | 203750
12 | 45:16.51 | 6:35.02 | 203751 | 233377
13 | 51:51.53 | 8:34.70 | 233378 | 271997
14 | 60:26.48 | 5:32.64 | 271998 | 296961


Range status and errors

Selected range

Filename K:\Мои раздачи\Музыка\Ligeti\CD4\Gyorgy Ligeti - THE LIGETI PROJECT (Disc 4).wav

Peak level 100.0 %
Range quality 100.0 %
Test CRC A011B7BB
Copy CRC A011B7BB
Copy OK

No errors occurred


AccurateRip summary

Track 1 accurately ripped (confidence 22) [F088E4BB]
Track 2 accurately ripped (confidence 23) [9A0F52C6]
Track 3 accurately ripped (confidence 23) [60DD6FDE]
Track 4 accurately ripped (confidence 23) [E8B125FA]
Track 5 accurately ripped (confidence 23) [8A00C2B3]
Track 6 accurately ripped (confidence 23) [872FB57F]
Track 7 accurately ripped (confidence 23) [1E12F0D1]
Track 8 accurately ripped (confidence 23) [61805719]
Track 9 accurately ripped (confidence 23) [BC160171]
Track 10 accurately ripped (confidence 23) [B7E5BA37]
Track 11 accurately ripped (confidence 23) [B068BAE6]
Track 12 accurately ripped (confidence 23) [9CC2625A]
Track 13 accurately ripped (confidence 23) [9C49FE5D]
Track 14 accurately ripped (confidence 23) [DCE1AC97]

All tracks accurately ripped

End of status report


Disc: 5
1. Ligeti : Aventures
2. Ligeti : Nouvelles Aventures I
3. Ligeti : Nouvelles Aventures II
4. Ligeti : Articulation for Tape
5. "Ligeti : 8 Pieces from ""Musica ricercata"" for Accordeon - I. Sostenuto - Misurato - Prestissimo"
6. "Ligeti : 8 Pieces from ""Musica ricercata"" for Accordeon - III. Allegro con spirito"
7. "Ligeti : 8 Pieces from ""Musica ricercata"" for Accordeon - IV. Tempo de Valse (poco vivace - ` l'orgue de Barbarie)"
8. "Ligeti : 8 Pieces from ""Musica ricercata"" for Accordeon - VII. Con moto, giusto - Cantabile, molto legato"
9. "Ligeti : 8 Pieces from ""Musica ricercata"" for Accordeon - VIII. Vivace. Energico"
10. "Ligeti : 8 Pieces from ""Musica ricercata"" for Accordeon - IX. (Béla Bartók in memoriam) Adago. Mesto - Allegro maestoso"
11. "Ligeti : 8 Pieces from ""Musica ricercata"" for Accordeon - X. Vivace. Capriccioso"
12. "Ligeti : 8 Pieces from ""Musica ricercata"" for Accordeon - XI. (Omaggio a Girolamo Frescobaldi) Andante misurato e tranquillo"
13. Ligeti : Solo Cello Sonata : I Dialogo
14. Ligeti : Solo Cello Sonata : II Capriccio
15. Ligeti : The Big Turtle Fanfare from the South China Sea
16. Ligeti : Ballad and Dance : I Andantino
17. Ligeti : Ballad and Dance : II Allegri vivace
18. Ligeti : Old Hungarian Ballroom Dances

Exact Audio Copy V0.99 prebeta 5 from 4. May 2009

EAC extraction logfile from 2. December 2010, 10:54

Gyцrgy Ligeti / Ligeti Project 5: Aventures, Nouvelles Aventures, Artikulation, Eight Pieces from "Musica ricercata", Cello Sonata, Big Turtle Fanfare, Balada si joc, Rйgi magyar tбrsas tбncok

Used drive : Optiarc DVD RW AD-7233S Adapter: 0 ID: 1

Read mode : Secure
Utilize accurate stream : Yes
Defeat audio cache : Yes
Make use of C2 pointers : No

Read offset correction : 48
Overread into Lead-In and Lead-Out : No
Fill up missing offset samples with silence : Yes
Delete leading and trailing silent blocks : No
Null samples used in CRC calculations : Yes
Used interface : Native Win32 interface for Win NT & 2000

Used output format : User Defined Encoder
Selected bitrate : 128 kBit/s
Quality : High
Add ID3 tag : No
Command line compressor : C:\Program Files\Exact Audio Copy\Flac\flac.exe
Additional command line options : -8 -V -T "ARTIST=%a" -T "TITLE=%t" -T "ALBUM=%g" -T "DATE=%y" -T "TRACKNUMBER=%n" -T "GENRE=%m" -T "COMMENT=EAC FLAC -8" %s


TOC of the extracted CD

Track | Start | Length | Start sector | End sector
––––––––––––––––––––––––––––-
1 | 0:00.00 | 10:40.16 | 0 | 48015
2 | 10:40.16 | 5:55.12 | 48016 | 74652
3 | 16:35.28 | 4:58.17 | 74653 | 97019
4 | 21:33.45 | 3:55.53 | 97020 | 114697
5 | 25:29.23 | 2:38.21 | 114698 | 126568
6 | 28:07.44 | 1:13.66 | 126569 | 132109
7 | 29:21.35 | 1:52.55 | 132110 | 140564
8 | 31:14.15 | 2:56.70 | 140565 | 153834
9 | 34:11.10 | 1:16.26 | 153835 | 159560
10 | 35:27.36 | 2:56.24 | 159561 | 172784
11 | 38:23.60 | 1:44.00 | 172785 | 180584
12 | 40:07.60 | 4:24.03 | 180585 | 200387
13 | 44:31.63 | 4:06.41 | 200388 | 218878
14 | 48:38.29 | 4:09.18 | 218879 | 237571
15 | 52:47.47 | 0:44.11 | 237572 | 240882
16 | 53:31.58 | 1:44.71 | 240883 | 248753
17 | 55:16.54 | 1:26.73 | 248754 | 255276
18 | 56:43.52 | 10:26.08 | 255277 | 302234


Range status and errors

Selected range

Filename K:\Мои раздачи\Музыка\Ligeti\CD5\Gyцrgy Ligeti - Ligeti Project 5 Aventures, Nouvelles Aventures, Artikulation, Eight Pieces from Musica ricercata , Cello Sonata, Big Turtle Fanfare, Balada si joc, Rйgi magyar tбrsas tбncok.wav

Peak level 97.7 %
Range quality 100.0 %
Test CRC 9478921E
Copy CRC 9478921E
Copy OK

No errors occurred


AccurateRip summary

Track 1 accurately ripped (confidence 10) [C5C023B6]
Track 2 accurately ripped (confidence 10) [AC93EEA4]
Track 3 accurately ripped (confidence 10) [68E7B3A5]
Track 4 accurately ripped (confidence 10) [FAE3A240]
Track 5 accurately ripped (confidence 10) [D82FE9C7]
Track 6 accurately ripped (confidence 10) [55191780]
Track 7 accurately ripped (confidence 10) [A53EACFA]
Track 8 accurately ripped (confidence 10) [E8D1FED0]
Track 9 accurately ripped (confidence 9) [00D583DA]
Track 10 accurately ripped (confidence 10) [6875E212]
Track 11 accurately ripped (confidence 10) [C0E3CC90]
Track 12 accurately ripped (confidence 10) [0576959F]
Track 13 accurately ripped (confidence 10) [EE3E4710]
Track 14 accurately ripped (confidence 10) [3A596C47]
Track 15 accurately ripped (confidence 10) [901DA321]
Track 16 accurately ripped (confidence 10) [32EEC9E2]
Track 17 accurately ripped (confidence 10) [11D48A5C]
Track 18 accurately ripped (confidence 9) [CC286F1E]

All tracks accurately ripped

End of status report


Gyorgy Ligeti - The Ligeti Project (2008) (5 CD Box Set)


Thanks to original ripper.