Subcategories

Hasil Adkins - Out To Hunch (2002) {Norton} **[RE-UP]**

Posted By: TestTickles
"I didn't try to be primitive. I just had a bad microphone."


Hasil Adkins - Out To Hunch (2002) {Norton} **[RE-UP]**

Hasil Adkins - Out To Hunch (2002) {Norton}
EAC Rip | FLAC with CUE and log | scans | 330 mb
MP3 CBR 320kbps | RAR | 157 mb
Genre: garage rock, psychobilly, rockabilly, rock'n'roll

Out To Hunch is a 2002 CD by Hasil Adkins. It is a compilation of some of his songs, favorites and to-be-faves by fans. This was released by Norton.

Hasil Adkins is a backwoods surrealist from rural West Virginia who spent most of the '50s, '60s, and '70s bashing ultra-crude rockabilly into an ancient reel-to-reel tape deck, one-man-band style (no overdubbing allowed – Adkins keeps the beat with bass drum pedals while laying down the melody on guitar and howling his lyrics in a single fevered take). Adkins' approach would be odd enough no matter what his songs were about, but a quick scan of his lyrics indicates this is where he really starts to drift into the Twilight Zone; he's recorded no fewer than three tunes about decapitation, "She Said" concerns an assignation with a woman who looked "like a dyin' can of that commodity meat," and "The Hunch" describes the nation's slowest rising new dance craze like so – "Now, if you ain't never seen nobody do the Hunch, you ain't never saw my woman! And I declare, son, you won't never see her! 'Cause I ain't got one!" Everybody clear on that? As you've no doubt gathered, Out to Hunch (compiled by Billy Miller from a decade's worth of home-recorded Adkins sessions, two of which were actually released as singles in the 1950s) doesn't sound a whole lot like anything else you've heard before, and if you're the sort of person who thinks Eric Clapton improves on Buddy Guy's guitar style, this probably won't be your bag. But if you believe that rock & roll is about passion and enthusiasm first and foremost, then Hasil Adkins has got to be one of the greatest rockers who ever walked the Earth – even the weirdest, crudest songs bubble with wired conviction, and odd as his style may be, Hasil rocks hard on every frantic cut of Out to Hunch. A true original and a thing of wonderment, Out to Hunch is a truly singular rock & roll experience; after listening to it, hot dogs will never seem quite the same again.

Hasil Adkins - Out To Hunch (2002) {Norton} **[RE-UP]**

01. She Said
02. No More Hot Dogs
03. Ha Ha Cat Walk Baby
04. Rockin' Robin
05. Chicken Walk
06. I'm Happy
07. Can't Help It Blues
08. We Got A Date
09. Turn My Coat Tails Loose
10. Hot Dog Baby
11. You Don't Love Me
12. Teenie Weenie Waddy Kiss
13. High School Confidential
14. Let Me Come In
15. The Hunch
16. Gee But I Love You
17. Memphis
18. Do It To Me Tonight
19. Truly Ruly
20. I Need Your Head

EAC extraction logfile from 23. February 2006, 18:21 for CD
Hasil Adkins / Out To Hunch

Used drive : HL-DT-STDVD-ROM GDR8162B Adapter: 1 ID: 0
Read mode : Secure with NO C2, accurate stream, disable cache
Read offset correction : 102
Overread into Lead-In and Lead-Out : Yes

Used output format : Internal WAV Routines
44.100 Hz; 16 Bit; Stereo

Other options :
Fill up missing offset samples with silence : Yes
Delete leading and trailing silent blocks : No
Native Win32 interface for Win NT & 2000


Track 1
Filename F:\Hasil Adkins - Out To Hunch (2002) [FLAC]\01 - She Said.wav

Pre-gap length 0:00:02.00

Peak level 100.0 %
Track quality 100.0 %
Test CRC A2135A3A
Copy CRC A2135A3A
Copy OK

Track 2
Filename F:\Hasil Adkins - Out To Hunch (2002) [FLAC]\02 - No More Hot Dogs.wav

Pre-gap length 0:00:01.22

Peak level 100.0 %
Track quality 100.0 %
Test CRC C77ADECF
Copy CRC C77ADECF
Copy OK

Track 3
Filename F:\Hasil Adkins - Out To Hunch (2002) [FLAC]\03 - Ha Ha Cat Walk Baby.wav

Pre-gap length 0:00:01.24

Peak level 100.0 %
Track quality 100.0 %
Test CRC C793539A
Copy CRC C793539A
Copy OK

Track 4
Filename F:\Hasil Adkins - Out To Hunch (2002) [FLAC]\04 - Rockin' Robin.wav

Pre-gap length 0:00:01.24

Peak level 100.0 %
Track quality 100.0 %
Test CRC 0378A7E0
Copy CRC 0378A7E0
Copy OK

Track 5
Filename F:\Hasil Adkins - Out To Hunch (2002) [FLAC]\05 - Chicken Walk.wav

Pre-gap length 0:00:01.24

Peak level 94.1 %
Track quality 99.9 %
Test CRC FE12982E
Copy CRC FE12982E
Copy OK

Track 6
Filename F:\Hasil Adkins - Out To Hunch (2002) [FLAC]\06 - I'm Happy.wav

Pre-gap length 0:00:01.22

Peak level 100.0 %
Track quality 100.0 %
Test CRC 17BAA84D
Copy CRC 17BAA84D
Copy OK

Track 7
Filename F:\Hasil Adkins - Out To Hunch (2002) [FLAC]\07 - Can't Help It Blues.wav

Pre-gap length 0:00:01.22

Peak level 97.8 %
Track quality 100.0 %
Test CRC 15C2ED57
Copy CRC 15C2ED57
Copy OK

Track 8
Filename F:\Hasil Adkins - Out To Hunch (2002) [FLAC]\08 - We Got A Date.wav

Pre-gap length 0:00:01.22

Peak level 87.0 %
Track quality 100.0 %
Test CRC B00BEEC1
Copy CRC B00BEEC1
Copy OK

Track 9
Filename F:\Hasil Adkins - Out To Hunch (2002) [FLAC]\09 - Turn My Coat Tails Loose.wav

Pre-gap length 0:00:01.24

Peak level 91.1 %
Track quality 100.0 %
Test CRC C42ACD6A
Copy CRC C42ACD6A
Copy OK

Track 10
Filename F:\Hasil Adkins - Out To Hunch (2002) [FLAC]\10 - Hot Dog Baby.wav

Pre-gap length 0:00:01.22

Peak level 99.6 %
Track quality 100.0 %
Test CRC E7D2B020
Copy CRC E7D2B020
Copy OK

Track 11
Filename F:\Hasil Adkins - Out To Hunch (2002) [FLAC]\11 - You Don't Love Me.wav

Pre-gap length 0:00:01.22

Peak level 93.9 %
Track quality 100.0 %
Test CRC 7F22D05D
Copy CRC 7F22D05D
Copy OK

Track 12
Filename F:\Hasil Adkins - Out To Hunch (2002) [FLAC]\12 - Teenie Weenie Waddy Kiss.wav

Pre-gap length 0:00:01.24

Peak level 100.0 %
Track quality 100.0 %
Test CRC C5086F99
Copy CRC C5086F99
Copy OK

Track 13
Filename F:\Hasil Adkins - Out To Hunch (2002) [FLAC]\13 - High School Confidential.wav

Pre-gap length 0:00:01.24

Peak level 99.6 %
Track quality 99.9 %
Test CRC 19AC82A4
Copy CRC 19AC82A4
Copy OK

Track 14
Filename F:\Hasil Adkins - Out To Hunch (2002) [FLAC]\14 - Let Me Come In.wav

Pre-gap length 0:00:01.24

Peak level 100.0 %
Track quality 100.0 %
Test CRC 9620F733
Copy CRC 9620F733
Copy OK

Track 15
Filename F:\Hasil Adkins - Out To Hunch (2002) [FLAC]\15 - The Hunch.wav

Pre-gap length 0:00:01.22

Peak level 99.9 %
Track quality 100.0 %
Test CRC C27DBC2A
Copy CRC C27DBC2A
Copy OK

Track 16
Filename F:\Hasil Adkins - Out To Hunch (2002) [FLAC]\16 - Gee But I Love You.wav

Pre-gap length 0:00:01.24

Peak level 100.0 %
Track quality 100.0 %
Test CRC C67952BD
Copy CRC C67952BD
Copy OK

Track 17
Filename F:\Hasil Adkins - Out To Hunch (2002) [FLAC]\17 - Memphis.wav

Pre-gap length 0:00:01.22

Peak level 100.0 %
Track quality 100.0 %
Test CRC 19CED499
Copy CRC 19CED499
Copy OK

Track 18
Filename F:\Hasil Adkins - Out To Hunch (2002) [FLAC]\18 - Do It To Me Tonight.wav

Pre-gap length 0:00:01.24

Peak level 86.3 %
Track quality 100.0 %
Test CRC 59201611
Copy CRC 59201611
Copy OK

Track 19
Filename F:\Hasil Adkins - Out To Hunch (2002) [FLAC]\19 - Truly Ruly.wav

Pre-gap length 0:00:01.22

Peak level 99.6 %
Track quality 100.0 %
Test CRC 5C66143C
Copy CRC 5C66143C
Copy OK

Track 20
Filename F:\Hasil Adkins - Out To Hunch (2002) [FLAC]\20 - I Need Your Head.wav

Pre-gap length 0:00:01.24

Peak level 100.0 %
Track quality 100.0 %
Test CRC E973FCF1
Copy CRC E973FCF1
Copy OK

No errors occured


End of status report


Hasil Adkins - Out To Hunch (2002) {Norton} **[RE-UP]**


Thank you to the original uploader.