Subcategories

VA - Haunted Hits: An Hour Of Scary Songs & Sounds (1996) {Rhino} **[RE-UP]**

Posted By: TestTickles
VA - Haunted Hits: An Hour Of Scary Songs & Sounds (1996) {Rhino} **[RE-UP]**

VA - Haunted Hits: An Hour Of Scary Songs & Sounds (1996) {Rhino}
EAC Rip | FLAC with CUE and log | scans | 298 mb
MP3 CBR 320kbps | RAR | 121 mb
Genre: Halloween, rock'n'roll, pop rock, R&B, hip-hop, rap

Haunted Hits: An Hour Of Scary Songs & Sounds is a 1996 compilation released by Rhino Records. The theme of it is Halloween-related pop songs by the likes of Screamin' Jay Hawkins, Ray Parker Jr., and such outsiders as sleazy punk rockers The Cramps. While the subtitle says it is an hour of music, it is ready 34 1/2 minutes of music and 25 minutes of "haunting" sound effects. Sunburst Studios are the production company credited in making the sound effects.

VA - Haunted Hits: An Hour Of Scary Songs & Sounds (1996) {Rhino} **[RE-UP]**

1. Sunburst Studios - Howling Wind
2. Sunburst Studios - Welcome
3. Jumpin' Gene Simmons - Haunted House
4. Sunburst Studios - Very Scary Mansion
5. Bobby Pickett & The Crypt-Kickers - Monster Mash
6. Sunburst Studios - Monsters In The Bat Cave
7. Ray Parker Jr. - Ghostbusters
8. Sunburst Studios - Little Girl Walking
9. DJ Jazzy Jeff & The Fresh Prince - A Nightmare On My Street
10. Sunburst Studios - Wolfman Growls #1
11. Warren Zevon - Werewolves Of London
12. Sunburst Studios - The Theremin Orchestra
13. Screamin' Jay Hawkins - I Put A Spell On You
14. Sunburst Studios - A Haunted House
15. Elvira - Haunted House
16. Sunburst Studios - More Monsters In A Large Bat Cave
17. The Cramps - I Was A Teenage Werewolf
18. Sunburst Studios - The Vampire Bats Are Waiting
19. Allan Sherman - My Son, The Vampire
20. Sunburst Studios - Evil Laughs
21. Elvira - Monsta' Rap
22. Sunburst Studios - Pipe Organ And Ghost
23. Sunburst Studios - Go Home

Exact Audio Copy V1.1 from 23. June 2015

EAC extraction logfile from 16. April 2016, 10:12

Sunburst Studios / Haunted Hits: An Hour Of Scary Songs & Sounds

Used drive : TEAC DVD-ROM DV-28SW Adapter: 1 ID: 0

Read mode : Secure
Utilize accurate stream : Yes
Defeat audio cache : Yes
Make use of C2 pointers : No

Read offset correction : 6
Overread into Lead-In and Lead-Out : No
Fill up missing offset samples with silence : Yes
Delete leading and trailing silent blocks : No
Null samples used in CRC calculations : Yes
Used interface : Native Win32 interface for Win NT & 2000
Gap handling : Left out

Used output format : Internal WAV Routines
Sample format : 44.100 Hz; 16 Bit; Stereo


TOC of the extracted CD

Track | Start | Length | Start sector | End sector
––––––––––––––––––––––––––––-
1 | 0:00.32 | 0:47.73 | 32 | 3629
2 | 0:48.30 | 0:13.40 | 3630 | 4644
3 | 1:01.70 | 2:32.50 | 4645 | 16094
4 | 3:34.45 | 3:01.32 | 16095 | 29701
5 | 6:36.02 | 3:10.55 | 29702 | 44006
6 | 9:46.57 | 2:58.15 | 44007 | 57371
7 | 12:44.72 | 4:05.05 | 57372 | 75751
8 | 16:50.02 | 1:07.38 | 75752 | 80814
9 | 17:57.40 | 4:51.45 | 80815 | 102684
10 | 22:49.10 | 0:19.45 | 102685 | 104154
11 | 23:08.55 | 3:24.57 | 104155 | 119511
12 | 26:33.37 | 1:32.03 | 119512 | 126414
13 | 28:05.40 | 2:25.12 | 126415 | 137301
14 | 30:30.52 | 1:08.33 | 137302 | 142434
15 | 31:39.10 | 4:22.57 | 142435 | 162141
16 | 36:01.67 | 2:28.35 | 162142 | 173276
17 | 38:30.27 | 3:05.43 | 173277 | 187194
18 | 41:35.70 | 1:10.62 | 187195 | 192506
19 | 42:46.57 | 2:23.70 | 192507 | 203301
20 | 45:10.52 | 0:36.23 | 203302 | 206024
21 | 45:47.00 | 4:12.57 | 206025 | 224981
22 | 49:59.57 | 2:52.23 | 224982 | 237904
23 | 52:52.05 | 0:11.57 | 237905 | 238786


Track 1

Filename C:\My Documents\My FLAC\VA - Haunted Hits (1996) [FLAC] {Rhino}\01 - Sunburst Studios - Howling Wind.wav

Pre-gap length 0:00:02.32

Peak level 56.0 %
Extraction speed 1.6 X
Track quality 100.0 %
Test CRC 866EF2E1
Copy CRC 866EF2E1
Track not fully ripped for AccurateRip lookup
Copy OK

Track 2

Filename C:\My Documents\My FLAC\VA - Haunted Hits (1996) [FLAC] {Rhino}\02 - Sunburst Studios - Welcome.wav

Pre-gap length 0:00:00.02

Peak level 98.7 %
Extraction speed 0.8 X
Track quality 100.0 %
Test CRC C47BF45A
Copy CRC C47BF45A
Track not fully ripped for AccurateRip lookup
Copy OK

Track 3

Filename C:\My Documents\My FLAC\VA - Haunted Hits (1996) [FLAC] {Rhino}\03 - Jumpin' Gene Simmons - Haunted House.wav

Pre-gap length 0:00:00.10

Peak level 86.1 %
Extraction speed 2.6 X
Track quality 100.0 %
Test CRC 1886A846
Copy CRC 1886A846
Track not fully ripped for AccurateRip lookup
Copy OK

Track 4

Filename C:\My Documents\My FLAC\VA - Haunted Hits (1996) [FLAC] {Rhino}\04 - Sunburst Studios - Very Scary Mansion.wav

Pre-gap length 0:00:00.02

Peak level 98.8 %
Extraction speed 3.0 X
Track quality 100.0 %
Test CRC BCEA08E5
Copy CRC BCEA08E5
Track not fully ripped for AccurateRip lookup
Copy OK

Track 5

Filename C:\My Documents\My FLAC\VA - Haunted Hits (1996) [FLAC] {Rhino}\05 - Bobby ''Boris'' Pickett & The Cryptkickers - Monster Mash.wav

Pre-gap length 0:00:00.02

Peak level 96.6 %
Extraction speed 3.1 X
Track quality 100.0 %
Test CRC B48C4FC3
Copy CRC B48C4FC3
Track not fully ripped for AccurateRip lookup
Copy OK

Track 6

Filename C:\My Documents\My FLAC\VA - Haunted Hits (1996) [FLAC] {Rhino}\06 - Sunburst Studios - Monsters In The Bat Cave.wav

Pre-gap length 0:00:00.22

Peak level 81.8 %
Extraction speed 3.3 X
Track quality 100.0 %
Test CRC 191D4119
Copy CRC 191D4119
Track not fully ripped for AccurateRip lookup
Copy OK

Track 7

Filename C:\My Documents\My FLAC\VA - Haunted Hits (1996) [FLAC] {Rhino}\07 - Ray Parker Jr. - Ghostbusters.wav

Pre-gap length 0:00:00.02

Peak level 88.7 %
Extraction speed 2.9 X
Track quality 99.9 %
Test CRC ACEAFD49
Copy CRC ACEAFD49
Track not fully ripped for AccurateRip lookup
Copy OK

Track 8

Filename C:\My Documents\My FLAC\VA - Haunted Hits (1996) [FLAC] {Rhino}\08 - Sunburst Studios - Little Girl Walking.wav

Pre-gap length 0:00:00.02

Peak level 77.2 %
Extraction speed 2.8 X
Track quality 100.0 %
Test CRC FDC5BC80
Copy CRC FDC5BC80
Track not fully ripped for AccurateRip lookup
Copy OK

Track 9

Filename C:\My Documents\My FLAC\VA - Haunted Hits (1996) [FLAC] {Rhino}\09 - DJ Jazzy Jeff & The Fresh Prince - A Nightmare On My Street.wav

Pre-gap length 0:00:00.02

Peak level 90.7 %
Extraction speed 3.6 X
Track quality 99.9 %
Test CRC A9421B9A
Copy CRC A9421B9A
Track not fully ripped for AccurateRip lookup
Copy OK

Track 10

Filename C:\My Documents\My FLAC\VA - Haunted Hits (1996) [FLAC] {Rhino}\10 - Sunburst Studios - Wolfman Growls #1.wav

Pre-gap length 0:00:00.07

Peak level 86.7 %
Extraction speed 1.6 X
Track quality 100.0 %
Test CRC 9DD88D3C
Copy CRC 9DD88D3C
Track not fully ripped for AccurateRip lookup
Copy OK

Track 11

Filename C:\My Documents\My FLAC\VA - Haunted Hits (1996) [FLAC] {Rhino}\11 - Warren Zevon - Werewolves Of London.wav

Pre-gap length 0:00:00.12

Peak level 98.8 %
Extraction speed 4.1 X
Track quality 100.0 %
Test CRC 9D4BE786
Copy CRC 9D4BE786
Track not fully ripped for AccurateRip lookup
Copy OK

Track 12

Filename C:\My Documents\My FLAC\VA - Haunted Hits (1996) [FLAC] {Rhino}\12 - Sunburst Studios - The Theremin Orchestra.wav

Pre-gap length 0:00:00.02

Peak level 84.7 %
Extraction speed 3.5 X
Track quality 100.0 %
Test CRC 6309C6A2
Copy CRC 6309C6A2
Track not fully ripped for AccurateRip lookup
Copy OK

Track 13

Filename C:\My Documents\My FLAC\VA - Haunted Hits (1996) [FLAC] {Rhino}\13 - Screamin' Jay Hawkins - I Put A Spell On You.wav

Pre-gap length 0:00:00.15

Peak level 77.6 %
Extraction speed 3.8 X
Track quality 100.0 %
Test CRC 7CF01DCD
Copy CRC 7CF01DCD
Track not fully ripped for AccurateRip lookup
Copy OK

Track 14

Filename C:\My Documents\My FLAC\VA - Haunted Hits (1996) [FLAC] {Rhino}\14 - Sunburst Studios - A Haunted House.wav

Pre-gap length 0:00:00.02

Peak level 88.0 %
Extraction speed 3.1 X
Track quality 100.0 %
Test CRC C60FFE88
Copy CRC C60FFE88
Track not fully ripped for AccurateRip lookup
Copy OK

Track 15

Filename C:\My Documents\My FLAC\VA - Haunted Hits (1996) [FLAC] {Rhino}\15 - Elvira - Haunted House.wav

Pre-gap length 0:00:00.02

Peak level 98.8 %
Extraction speed 4.7 X
Track quality 100.0 %
Test CRC 51A30592
Copy CRC 51A30592
Track not fully ripped for AccurateRip lookup
Copy OK

Track 16

Filename C:\My Documents\My FLAC\VA - Haunted Hits (1996) [FLAC] {Rhino}\16 - Sunburst Studios - More Monsters In A Large Bat Cave.wav

Pre-gap length 0:00:00.02

Peak level 95.0 %
Extraction speed 4.2 X
Track quality 100.0 %
Test CRC CE4DC263
Copy CRC CE4DC263
Track not fully ripped for AccurateRip lookup
Copy OK

Track 17

Filename C:\My Documents\My FLAC\VA - Haunted Hits (1996) [FLAC] {Rhino}\17 - The Cramps - I Was A Teenage Werewolf.wav

Pre-gap length 0:00:00.02

Peak level 88.5 %
Extraction speed 4.5 X
Track quality 100.0 %
Test CRC 1F86D5E7
Copy CRC 1F86D5E7
Track not fully ripped for AccurateRip lookup
Copy OK

Track 18

Filename C:\My Documents\My FLAC\VA - Haunted Hits (1996) [FLAC] {Rhino}\18 - Sunburst Studios - The Vampire Bats Are Waiting.wav

Pre-gap length 0:00:00.02

Peak level 41.1 %
Extraction speed 3.8 X
Track quality 100.0 %
Test CRC AC1C2399
Copy CRC AC1C2399
Track not fully ripped for AccurateRip lookup
Copy OK

Track 19

Filename C:\My Documents\My FLAC\VA - Haunted Hits (1996) [FLAC] {Rhino}\19 - Allan Sherman - My Son, The Vampire.wav

Pre-gap length 0:00:00.02

Peak level 98.8 %
Extraction speed 4.7 X
Track quality 100.0 %
Test CRC 586F4281
Copy CRC 586F4281
Track not fully ripped for AccurateRip lookup
Copy OK

Track 20

Filename C:\My Documents\My FLAC\VA - Haunted Hits (1996) [FLAC] {Rhino}\20 - Sunburst Studios - Evil Laughs.wav

Pre-gap length 0:00:00.02

Peak level 55.5 %
Extraction speed 2.9 X
Track quality 100.0 %
Test CRC 55C7B29D
Copy CRC 55C7B29D
Track not fully ripped for AccurateRip lookup
Copy OK

Track 21

Filename C:\My Documents\My FLAC\VA - Haunted Hits (1996) [FLAC] {Rhino}\21 - Elvira - Monsta' Rap.wav

Pre-gap length 0:00:00.02

Peak level 57.1 %
Extraction speed 5.3 X
Track quality 100.0 %
Test CRC A2DD52EF
Copy CRC A2DD52EF
Track not fully ripped for AccurateRip lookup
Copy OK

Track 22

Filename C:\My Documents\My FLAC\VA - Haunted Hits (1996) [FLAC] {Rhino}\22 - Sunburst Studios - Pipe Organ And Ghost.wav

Pre-gap length 0:00:00.24

Peak level 87.3 %
Extraction speed 5.0 X
Track quality 100.0 %
Test CRC 06B5425D
Copy CRC 06B5425D
Track not fully ripped for AccurateRip lookup
Copy OK

Track 23

Filename C:\My Documents\My FLAC\VA - Haunted Hits (1996) [FLAC] {Rhino}\23 - Sunburst Studios - Go Home.wav

Pre-gap length 0:00:00.17

Peak level 88.4 %
Extraction speed 1.4 X
Track quality 100.0 %
Test CRC 8F3F1D61
Copy CRC 8F3F1D61
Accurately ripped (confidence 6) [7345E09E] (AR v2)
Copy OK


1 track(s) accurately ripped
22 track(s) not fully ripped for AccurateRip lookup

Some tracks could not be verified as accurate

No errors occurred

End of status report

==== Log checksum FE8961EBD4C03EDCEC88C4803DF754806B414C672B1828BFE01CD9F1672AB0F5 ====


VA - Haunted Hits: An Hour Of Scary Songs & Sounds (1996) {Rhino} **[RE-UP]**