Subcategories

Freddie Hubbard/Nat Adderley - A Soul Experiment/Autobiography (1969/1965) {2000 Collectables}

Posted By: TestTickles
Freddie Hubbard/Nat Adderley - A Soul Experiment/Autobiography (1969/1965) {2000 Collectables}

Freddie Hubbard/Nat Adderley - A Soul Experiment/Autobiography (1969/1965) {2000 Collectables}
EAC Rip | FLAC with CUE and log | scans | 506 mb
MP3 CBR 320kbps | RAR | 180 mb
Genre: jazz

This is a 2-for-1 CD uniting albums by two different artists, 1969's A Soul Experiment by Freddie Hubbard and 1965's Autobiography by Nat Adderley. Both were originally released by Atlantic Records but this unites them as one, courtesy of the Collectables label.
This disc pairs separate Atlantic reissues from two of the finest hard bop brass players of all time, Nat Adderley and Freddie Hubbard. A Soul Experiment finds Hubbard grasping for 1969 commercial radio acceptance with shorter songs, and a stab at Jimmy Webb's "Wichita Lineman." A Soul Experiment isn't horrible, but in no way does it represent the artistry of Freddie Hubbard. Nat Adderley, on the other hand, achieved one of his strongest dates with his first post-Riverside, initial Atlantic 1964 release, Autobiography. Classic compositions "Work Song," "Little Boy With the Sad Eyes," "The Old Country," and "Jive Samba" are included with five other Adderley-penned tunes of equal hard bop appeal.

01. Clap Your Hands (3:27)
02. Wichita Lineman (3:16)
03. South Street Stroll (4:28)
04. Lonely Soul (3:03)
05. No Time to Lose (4:32)
06. Hang 'Em Up (3:08)
07. Good Humor Man (3:43)
08. Midnite Soul (5:19)
09. Soul Turn Around (4:00)
10. A Soul Experiment (3:59)

Freddie Hubbard - trumpet
Carlos Garnett - tenor sax (except #1, 2 & 10)
Kenny Barron - piano
Gary Illingworth - organ
Eric Gale - guitar, except
Billy Butler - guitar (#3, 7 & 9)
Jerry Jemott - bass
Grady Tate - drums

11. Sermonette (5:55)
12. Work Song (3:57)
13. The Old Country (4:28)
14. Junkanoo (3:04)
15. Stony Island (3:31)
16. Little Boy With the Sad Eyes (6:06)
17. Never Say Yes (4:28 )
18. Jive Samba (5:18)

Nat Adderley - cornet
Ernie Royal - trumpet (except #1, 2 & 10)
Seldon Powell - tenor sax or flute
Benny Powell - bass trombone, except
Tony Studd - trombone (#12 & 16)
Don Butterfield - tuba
Joe Zawinul - piano (#14, 15 & 18)
Sam Jones - bass
Bruno Carr - drums, except
Grady Tate - drums (#11, 13 & 17)
Victor Pantoja - conga (#14, 15 & 18)
Willie Bobo - percussion (#14, 15 & 18)

11. Sermonette (Adderley, Hendricks) 5:55
12. Work Song (Adderley, Brown) 3:57
13. The Old Country (Adderley) 4:28
14. Junkanoo (Adderley) 3:04
15. Stony Island (Adderley) 3:31
16. Little Boy With the Sad Eyes (Adderley) 6:06
17. Never Say Yes (Adderley) 4:28
18. Jive Samba (Adderley) 5:18

EAC extraction logfile from 22. June 2006, 17:00 for CD
Freddie Hubbard, Nat Adderley / A Soul Experiment, Autobiography

Used drive : PIONEER DVD-RW DVR-109 Adapter: 1 ID: 0
Read mode : Secure with NO C2, accurate stream, disable cache
Read offset correction : 48
Overread into Lead-In and Lead-Out : No

Used output format : C:\Program Files\flac-1.1.2-win\bin\flac.exe (User Defined Encoder)
320 kBit/s
Additional command line options : -5 -V -T "ARTIST=%a" -T "TITLE=%t" -T "ALBUM=%g" -T "DATE=%y" -T "TRACKNUMBER=%n" -T "GENRE=%m" -T "COMMENT=EAC Flac 1.1.2 -5" %s

Other options :
Fill up missing offset samples with silence : Yes
Delete leading and trailing silent blocks : No
Native Win32 interface for Win NT & 2000


Track 1
Filename C:\FLAC\Freddie Hubbard, Nat Adderley - A Soul Experiment, Autobiography (1969, 1965) [FLAC] {2000 Collectables}\01 - Freddie Hubbard - Clap Your Hands.wav

Pre-gap length 0:00:02.00

Peak level 94.4 %
Track quality 100.0 %
Test CRC 8139D654
Copy CRC 8139D654
Copy OK

Track 2
Filename C:\FLAC\Freddie Hubbard, Nat Adderley - A Soul Experiment, Autobiography (1969, 1965) [FLAC] {2000 Collectables}\02 - Freddie Hubbard - Wichita Lineman.wav

Pre-gap length 0:00:02.30

Peak level 94.2 %
Track quality 100.0 %
Test CRC CE15B151
Copy CRC CE15B151
Copy OK

Track 3
Filename C:\FLAC\Freddie Hubbard, Nat Adderley - A Soul Experiment, Autobiography (1969, 1965) [FLAC] {2000 Collectables}\03 - Freddie Hubbard - South Street Stroll.wav

Pre-gap length 0:00:02.26

Peak level 94.4 %
Track quality 99.9 %
Test CRC DAED9A3A
Copy CRC DAED9A3A
Copy OK

Track 4
Filename C:\FLAC\Freddie Hubbard, Nat Adderley - A Soul Experiment, Autobiography (1969, 1965) [FLAC] {2000 Collectables}\04 - Freddie Hubbard - Lonely Soul.wav

Pre-gap length 0:00:02.33

Peak level 94.4 %
Track quality 100.0 %
Test CRC 2705D590
Copy CRC 2705D590
Copy OK

Track 5
Filename C:\FLAC\Freddie Hubbard, Nat Adderley - A Soul Experiment, Autobiography (1969, 1965) [FLAC] {2000 Collectables}\05 - Freddie Hubbard - No Time To Lose.wav

Pre-gap length 0:00:02.33

Peak level 94.4 %
Track quality 99.9 %
Test CRC 6C0C18E7
Copy CRC 6C0C18E7
Copy OK

Track 6
Filename C:\FLAC\Freddie Hubbard, Nat Adderley - A Soul Experiment, Autobiography (1969, 1965) [FLAC] {2000 Collectables}\06 - Freddie Hubbard - Hang 'Em Up.wav

Pre-gap length 0:00:02.33

Peak level 89.1 %
Track quality 100.0 %
Test CRC 7C76220A
Copy CRC 7C76220A
Copy OK

Track 7
Filename C:\FLAC\Freddie Hubbard, Nat Adderley - A Soul Experiment, Autobiography (1969, 1965) [FLAC] {2000 Collectables}\07 - Freddie Hubbard - Good Humor Man.wav

Pre-gap length 0:00:02.33

Peak level 89.1 %
Track quality 100.0 %
Test CRC 00C447DA
Copy CRC 00C447DA
Copy OK

Track 8
Filename C:\FLAC\Freddie Hubbard, Nat Adderley - A Soul Experiment, Autobiography (1969, 1965) [FLAC] {2000 Collectables}\08 - Freddie Hubbard - Midnite Soul.wav

Pre-gap length 0:00:02.30

Peak level 99.9 %
Track quality 100.0 %
Test CRC D06BA601
Copy CRC D06BA601
Copy OK

Track 9
Filename C:\FLAC\Freddie Hubbard, Nat Adderley - A Soul Experiment, Autobiography (1969, 1965) [FLAC] {2000 Collectables}\09 - Freddie Hubbard - Soul Turn Around.wav

Pre-gap length 0:00:02.30

Peak level 89.1 %
Track quality 99.5 %
Test CRC 4BC9DFDB
Copy CRC 4BC9DFDB
Copy OK

Track 10
Filename C:\FLAC\Freddie Hubbard, Nat Adderley - A Soul Experiment, Autobiography (1969, 1965) [FLAC] {2000 Collectables}\10 - Freddie Hubbard - A Soul Experiment.wav

Pre-gap length 0:00:02.20

Peak level 89.1 %
Track quality 100.0 %
Test CRC E0DC4472
Copy CRC E0DC4472
Copy OK

Track 11
Filename C:\FLAC\Freddie Hubbard, Nat Adderley - A Soul Experiment, Autobiography (1969, 1965) [FLAC] {2000 Collectables}\11 - Nat Adderley - Sermonette.wav

Pre-gap length 0:00:03.57

Peak level 96.0 %
Track quality 100.0 %
Test CRC 135A3A0B
Copy CRC 135A3A0B
Copy OK

Track 12
Filename C:\FLAC\Freddie Hubbard, Nat Adderley - A Soul Experiment, Autobiography (1969, 1965) [FLAC] {2000 Collectables}\12 - Nat Adderley - Work Song.wav

Pre-gap length 0:00:02.26

Peak level 99.9 %
Track quality 100.0 %
Test CRC 50C56BEF
Copy CRC 50C56BEF
Copy OK

Track 13
Filename C:\FLAC\Freddie Hubbard, Nat Adderley - A Soul Experiment, Autobiography (1969, 1965) [FLAC] {2000 Collectables}\13 - Nat Adderley - The Old Country.wav

Pre-gap length 0:00:02.33

Peak level 97.2 %
Track quality 100.0 %
Test CRC BFA2D670
Copy CRC BFA2D670
Copy OK

Track 14
Filename C:\FLAC\Freddie Hubbard, Nat Adderley - A Soul Experiment, Autobiography (1969, 1965) [FLAC] {2000 Collectables}\14 - Nat Adderley - Junkanoo.wav

Pre-gap length 0:00:02.26

Peak level 97.3 %
Track quality 100.0 %
Test CRC EA7050D4
Copy CRC EA7050D4
Copy OK

Track 15
Filename C:\FLAC\Freddie Hubbard, Nat Adderley - A Soul Experiment, Autobiography (1969, 1965) [FLAC] {2000 Collectables}\15 - Nat Adderley - Stony Island.wav

Pre-gap length 0:00:02.24

Peak level 99.9 %
Track quality 100.0 %
Test CRC 4E85BE82
Copy CRC 4E85BE82
Copy OK

Track 16
Filename C:\FLAC\Freddie Hubbard, Nat Adderley - A Soul Experiment, Autobiography (1969, 1965) [FLAC] {2000 Collectables}\16 - Nat Adderley - Little Boy With the Sad Eyes.wav

Pre-gap length 0:00:02.30

Peak level 99.9 %
Track quality 100.0 %
Test CRC FF603DFE
Copy CRC FF603DFE
Copy OK

Track 17
Filename C:\FLAC\Freddie Hubbard, Nat Adderley - A Soul Experiment, Autobiography (1969, 1965) [FLAC] {2000 Collectables}\17 - Nat Adderley - Never Say Yes.wav

Pre-gap length 0:00:02.24

Peak level 95.3 %
Track quality 100.0 %
Test CRC 7E497856
Copy CRC 7E497856
Copy OK

Track 18
Filename C:\FLAC\Freddie Hubbard, Nat Adderley - A Soul Experiment, Autobiography (1969, 1965) [FLAC] {2000 Collectables}\18 - Nat Adderley - Jive Samba.wav

Pre-gap length 0:00:02.04

Peak level 97.7 %
Track quality 99.9 %
Test CRC 2E5873CF
Copy CRC 2E5873CF
Copy OK

No errors occured


End of status report


Freddie Hubbard/Nat Adderley - A Soul Experiment/Autobiography (1969/1965) {2000 Collectables}


Thank you to the original uploader