Subcategories

Reynaldo Hahn & Louis Vierne - Piano Quintets (Chilingirian Quartet - Coombs)

Posted By: tapaz9
Reynaldo Hahn & Louis Vierne - Piano Quintets (Chilingirian Quartet - Coombs)

Reynaldo Hahn & Louis Vierne - Piano Quintets (Chilingirian Quartet - Coombs)
Classical | EAC: FLAC+Cue+Log | 1 Cd, Covers + Booklet | 328 Mb
Label: Hyperion - Date: 2001

Reynaldo Hahn's reputation as the composer of some of the most attractive songs in the French repertoire has increased greatly in recent years with the issue of several recordings. His chamber music is now beginning to appear on disc. Like the songs, this Piano Quintet is immediately appealing to anyone with a liking for tuneful, easygoing and not-too-profound chamber music. It was written in 1922. Louis Vierne's Piano Quintet dates from 1917 and is a much sterner, melancholic work, written in memoriam to the composer's son who was killed in the Great War. Vierne is principally known as the composer of organ music, including six imposing symphonies. His chamber music is much less well known.
Tracks:

01. Hahn: Piano Quintet in F# minor -I- Molto agitato e con fuoco [0:10:36.26]
02. Piano Quintet in F# minor -II- Andante (non troppo lento) [0:09:35.47]
03. Piano Quintet in F# minor -III- Allegretto grazioso [0:07:04.60]
04. Vierne: Piano Quintet in C minor Op.42 -I- Poco lento - Moderato [0:10:10.03]
05. Piano Quintet in C minor Op.42 -II- Larghetto sostenuto [0:11:38.48]
06. Piano Quintet in C minor Op.42 -III- Maestoso [0:09:48.55]


Exact Audio Copy V1.0 beta 3 from 29. August 2011

EAC extraction logfile from 27. January 2013, 0:18

Reynaldo Hahn & Louis Vierne / Piano Quintets (Chilingirian Quartet - Coombs)

Used drive : TSSTcorpCDDVDW SH-S223C Adapter: 2 ID: 1

Read mode : Secure
Utilize accurate stream : Yes
Defeat audio cache : Yes
Make use of C2 pointers : No

Read offset correction : 697
Overread into Lead-In and Lead-Out : No
Fill up missing offset samples with silence : Yes
Delete leading and trailing silent blocks : No
Null samples used in CRC calculations : Yes
Used interface : Native Win32 interface for Win NT & 2000

Used output format : User Defined Encoder
Selected bitrate : 896 kBit/s
Quality : High
Add ID3 tag : No
Command line compressor : C:\Program Files (x86)\Exact Audio Copy\FLAC\FLAC.EXE
Additional command line options : -V -0 -T "COMMENT=Ripped by Tapaz9" -T "artist=%artist%" -T "title=%title%" -T "album=%albumtitle%" -T "date=%year%" -T "tracknumber=%tracknr%" -T "genre=%genre%" %source%


TOC of the extracted CD

Track | Start | Length | Start sector | End sector
––––––––––––––––––––––––––––-
1 | 0:00.00 | 10:36.26 | 0 | 47725
2 | 10:36.26 | 9:35.47 | 47726 | 90897
3 | 20:11.73 | 7:04.60 | 90898 | 122757
4 | 27:16.58 | 10:10.03 | 122758 | 168510
5 | 37:26.61 | 11:38.48 | 168511 | 220908
6 | 49:05.34 | 9:48.55 | 220909 | 265063


Range status and errors

Selected range

Filename F:\Musique\Hahn, Reynaldo\HahnAndVierne_PianoQuintets\Reynaldo Hahn & Louis Vierne - Piano Quintets (Chilingirian Quartet - Coombs).wav

Peak level 99.1 %
Extraction speed 14.4 X
Range quality 100.0 %
Copy CRC 28CEE31F
Copy OK

No errors occurred

End of status report

==== Log checksum B070F6992D3324AB8D02C737F071597D6A101392E1D55BED8A727DCBE373AE9F ====

No Mirrors and Torrent-uploads Please

See my classical digital download posts in the Vinyl & HR section or check out My Avax blog