Subcategories

Rodolfo Halffter - Chamber Music, Vol. 1

Posted By: siouxsie55
Rodolfo Halffter - Chamber Music, Vol. 1

Rodolfo Halffter - Chamber Music, Vol. 1 (Madrid Community Orchestra Soloists)
XX Century Classical | 1 CD's | EAC - Rip | Flac, IMG+CUE+LOG | SCANS | 207MB | Filesonic
Publisher: Naxos

Rodolfo Halffter’s music embraces almost every genre but he was primarily an instrumental composer. Born in Spain, and after the civil war resident in Mexico, Halffter became a leading figure in his adopted country. His three piano sonatas rank among his most important works for that instrument, combining Scarlattian playfulness with Romantic and avant-garde techniques. The other works on this disc, in which flute or violin duet with piano, abound in appealing Latin colour, poetic moods and refined, sometimes spirited, lyricism.

Tracklist

01 "… Huesped de las nieblas … (Rimas sin palabras), Op. 44
02 Piano Sonata No. 1, Op. 16 - I. Allegro deciso
03 II. Moderato cantabile, molto espressivo
04 III. Allegro con spirito
05 Pastorale, Op. 18
06 Piano Sonata No. 2, Op. 20 - I. Allegro
07 II. Andante poco mosso
08 III. Scherzo
09 IV. Rondo
10 Egloga, Op. 45
11 Piano Sonata No. 3, Op. 30 - I. Allegro
12 II. Moderato cantabile
13 III. Liberamente
14 IV. Impetuoso


Exact Audio Copy V1.0 beta 1 from 15. November 2010

EAC extraction logfile from 9. March 2011, 17:10

Halffter, Rodolfo / Chamber Music, Vol. 1

Used drive : TSSTcorpCDDVDW SH-S223C Adapter: 1 ID: 1

Read mode : Secure
Utilize accurate stream : Yes
Defeat audio cache : No
Make use of C2 pointers : Yes

Read offset correction : 697
Overread into Lead-In and Lead-Out : No
Fill up missing offset samples with silence : Yes
Delete leading and trailing silent blocks : No
Null samples used in CRC calculations : No
Used interface : Native Win32 interface for Win NT & 2000

Used output format : User Defined Encoder
Selected bitrate : 768 kBit/s
Quality : High
Add ID3 tag : No
Command line compressor : C:\Program Files (x86)\Exact Audio Copy\FLAC\FLAC.EXE
Additional command line options : -6 -V -T "ARTIST=%a" -T "TITLE=%t" -T "ALBUM=%g" -T "DATE=%y" -T "TRACKNUMBER=%n" -T "GENRE=%m" -T "COMMENT=%e"

%j–picture="%i"%j %s -o %d


TOC of the extracted CD

Track | Start | Length | Start sector | End sector
––––––––––––––––––––––––––––-
1 | 0:00.00 | 7:25.10 | 0 | 33384
2 | 7:25.10 | 4:35.44 | 33385 | 54053
3 | 12:00.54 | 4:03.40 | 54054 | 72318
4 | 16:04.19 | 2:22.11 | 72319 | 82979
5 | 18:26.30 | 5:08.46 | 82980 | 106125
6 | 23:35.01 | 4:31.35 | 106126 | 126485
7 | 28:06.36 | 4:50.50 | 126486 | 148285
8 | 32:57.11 | 3:36.20 | 148286 | 164505
9 | 36:33.31 | 3:35.73 | 164506 | 180703
10 | 40:09.29 | 7:43.06 | 180704 | 215434
11 | 47:52.35 | 3:37.74 | 215435 | 231783
12 | 51:30.34 | 3:25.67 | 231784 | 247225
13 | 54:56.26 | 4:31.49 | 247226 | 267599
14 | 59:28.00 | 4:01.40 | 267600 | 285714


Range status and errors

Selected range

Filename E:\digileen\Halffter, Rodolfo - Chamber Music, Vol. 1.wav

Peak level 98.4 %
Extraction speed 5.1 X
Range quality 99.9 %
Copy CRC 1191B975
Copy OK

No errors occurred


AccurateRip summary

Track 1 not present in database
Track 2 not present in database
Track 3 not present in database
Track 4 not present in database
Track 5 not present in database
Track 6 not present in database
Track 7 not present in database
Track 8 not present in database
Track 9 not present in database
Track 10 not present in database
Track 11 not present in database
Track 12 not present in database
Track 13 not present in database
Track 14 not present in database

None of the tracks are present in the AccurateRip database

End of status report