Tags
Language
Tags

Riccardo Minasi, Il Pomo d'Oro, Karina Gauvin, Philippe Jaroussky - Handel: Partenope (2015)

Posted By: Vilboa
Riccardo Minasi, Il Pomo d'Oro, Karina Gauvin, Philippe Jaroussky - Handel: Partenope (2015)

Riccardo Minasi, Il Pomo d'Oro, Karina Gauvin, Philippe Jaroussky - Handel: Partenope (2015)
EAC (flac, image, cue, log) | TT: 74:31+62:48+66:07 | Covers | 1,07 Gb
Classical | Erato | # 0825646090075 | Rec: 2015

Handel’s sparkling opera Partenope reunites countertenor Philippe Jaroussky and soprano Karina Gauvin, who both made such an impact in the recording of Steffani’s rediscovered Niobe – released by Erato in early 2015 and welcomed by Gramophone as “a landmark event”. Every moment of Partenope’s comedy, romance and drama is captured by the dynamic conductor Riccardo Minasi and his ensemble Il Pomo d’Oro.

Cast:
Partenope - Karina Gauvin
Arsace - Philippe Jaroussky
Rosmira - Teresa Iervolino
Armindo - Emőke Baráth
Emilio - John Mark Ainsley
Ormonte - Luca Tittoto
Il Pompo d'Oro
Direction - Riccardo Minasi

Track List:
CD1
01. Ouverture: I.
02. Ouverture: II. Allegro
03. Ouverture: III. Presto
04. Atto I. Recitativo: Tu dell'eccelse mura
05. Coro: Viva, viva, Partenope viva
06. Recitativo: Miei fidi, arride il cielo
07. Recitativo: Arsace. Armindo
08. Recitativo: Regina, in folte schiere
09. Aria: L'amor ed il destin
10. Aria: O Eurimene ha l'idea di Rosmira
11. Recitativo: Cavalier, se gli dei
12. Aria: Se non ti sai spiegar
13. Recitativo: Armindo ardisci e prova
14. Aria: Voglio dire al mio tesoro
15. Recitativo: Ah! ch'un volto fatal mi dà gran pena!
16. Aria: Un'altra volta ancor
17. Recitativo: Rosmira, oh Dio, Rosmira
18. Aria: Sento amor con novi dardi
19. Recitativo: Stan pronti i miei guerrier
20. Aria: T'appresta forse Amore
21. Recitativo: Signora
22. Aria: Bramo restar, ma no
23. Recitativo: E di che reo son io? - Duettino: Per te moro
24. Recitativo: E se giunge Eurimene?
25. Aria: Sei mia gioia, sei mio bene
26. Recitativo: I novelli amor tuoi
27. Aria: Dimmi, pietoso ciel
28. Recitativo: Ecco Emilio
29. Aria: Anch'io pugnar saprò
30. Recitativo: Arsace, tu sarai
31. Aria: Io ti levo l'impero dell'armi
CD2
01. Recitativo: Lascia, deh, lascia, oh prence (Aesace, Rosmira, Armindo)
02. Aria: È figlio il mio timore (Arsace)
03. Recitativo: Prence, di te mi lagno (Armindo, Rosmira)
04. Aria: Io seguo sol fiero (Rosmira)
05. Atto II. Sinfonia
06. Recitativo: Forti mie schiere (Emilio)
07. Marche
08. Recitativo: Ma le nemiche squadre (Emilio, Partenope)
09. Coro: Con valorosa mano (Emilio, Partenope, Tutti)
10. Sinfonia
11. Recitativo: Soccorso (Partenope, Armindo)
12. Sinfonia
13. Recitativo: Renditi, oppure estinto (Emilio, Arsace, Rosmira, Partenope, Ormonte)
14. Coro: Vi circondi la gloria d'allori! (Partenope, Arsace, Armindo, Rosmira, Ormonte)
15. Recitativo accompagnato: Contro un pudico amor (Emilio)
16. Aria: Barbaro fato, si (Emilio)
17. Aria: Care mura (Partenope)
18. Recitativo: Emilio! (Partenope, Emilio, Rosmira, Arsace, Ormonte, Armindo)
19. Aria: Voglio amare insin ch'io moro (Partenope)
20. Recitativo: Ti bramo amico, e teco (Arsace, Emilio, Armindo, Rosmira)
21. Duetto: E vuoi con dure tempre (Arsace, Rosmira)
22. Recitativo: Non può darsi in un petto (Emilio, Armindo, Rosmira)
23. Aria: Furie son dell'alma mia (Rosmira)
24. Recitativo: A pro di chi t'offese (Partenope, Arsace)
25. Aria: Poterti dir vorrei (Arsace)
26. Recitativo: Regina (Armindo, Partenope)
27. Aria: Non chiedo, oh luci vaghe (Ermindo)
28. Recitativo: Più d'ogn'altro sarebbe (Partenope)
29. Aria: Qual farfalletta (Partenope)
30. Recitativo: Quanto godo, Eurimene (Armindo, Rosmira)
31. Recitativo: Rosmira mia, mio bene! (Arsace, Rosmira)
32. Aria: Furibondo spira il vento (Arsace)
CD3
01. Atto III. Sinfonia
02. Recitativo: Regina, ti compiace (Armindo, Partenope, Arsace, Emilio)
03. Quartetto: Non è incauto il mio consiglio (Armindo, Emilio, Arsace, Partenope)
04. Recitativo: Partenope, Eurimene (Rosmira, Partenope, Arsace, Armindo, Emilio)
05. Arietta: Arsace, oh dio, così (Rosmira)
06. Recitativo: Chi m'apre i lumi? (Partenope, Emilio, Armindo)
07. Aria: Spera e godi, oh mio tesoro (Partenope)
08. Recitativo: Prencipe, ardir! (Emilio, Armindo, Rosmira, Arsace)
09. Aria: La speme ti consoli (Emilio)
10. Recitativo: Rosmira, ove ti guida (Arsace, Rosmira)
11. Aria: Ch'io parta? (Arsace)
12. Recitativo: Oh dio, par che dal petto (Rosmira)
13. Aria: Quel volto mi piace (Rosmira)
14. Recitativo: Ormonte, ti destino (Partenope, Ormonte, Armindo)
15. Aria: Nobil core che ben ama (Armindo)
16. Recitativo: Non chiedo, oh miei tormenti (Arsace)
17. Aria: Ma quai note di mesti lamenti (Arsace)
18. Recitativo accompagnato: Cieli, che miro! (Rosmira)
19. Recitativo: Ma Partenope vien (Rosmira, Partenope, Arsace)
20. Terzetto: Un cor infedele (Partenope, Arsace, Rosmira)
21. Recitativo: Passo di duolo in duolo (Arsace)
22. Aria: Fatto è Amor un dio d'inferno (Arsace)
23. Recitativo: Di bel desire avvampo (Emilio, Armindo)
24. Aria: La gloria in nobil alma (Emilio)
25. Sinfonia
26. Recitativo: Regina, in queste arene (Ormonte, Partenope, Emilio, Rosmira, Armindo, Arsace)
27. Aria: Sì, scherza, sì (Partenope)
28. Recitativo: Armindo sia mio sposo (Partenope, Armindo, Arsace, Rosmira))
29. Coro: D'Imeneo le belle tede
30. Recitativo: Regina, in queste arene (Ormonte, Partenope, Emilio, Rosmira, Armindo, Arsace)
31. Aria: Seguaci di Cupido (Arsace)
32. Recitativo: Tu vanne in libertate (Partenope)
33. Coro: D'Imeneo le belle tede


Exact Audio Copy V1.5 from 20. February 2020

EAC extraction logfile from 27. August 2020, 14:47

Riccardo Minasi, Il Pompo d'oro / Handel - Partenope CD1

Used drive : PIONEER BD-RW BDR-207M Adapter: 1 ID: 1

Read mode : Secure
Utilize accurate stream : Yes
Defeat audio cache : Yes
Make use of C2 pointers : No

Read offset correction : 667
Overread into Lead-In and Lead-Out : No
Fill up missing offset samples with silence : Yes
Delete leading and trailing silent blocks : No
Null samples used in CRC calculations : Yes
Used interface : Native Win32 interface for Win NT & 2000

Used output format : User Defined Encoder
Selected bitrate : 128 kBit/s
Quality : High
Add ID3 tag : No
Command line compressor : C:\Program Files\Exact Audio Copy\Flac\flac.exe
Additional command line options : -V -8 -T "Date=%year%" -T "Genre=%genre%" %source%


TOC of the extracted CD

Track | Start | Length | Start sector | End sector
––––––––––––––––––––––––––––-
1 | 0:00.00 | 1:45.55 | 0 | 7929
2 | 1:45.55 | 2:59.03 | 7930 | 21357
3 | 4:44.58 | 1:30.62 | 21358 | 28169
4 | 6:15.45 | 0:41.73 | 28170 | 31317
5 | 6:57.43 | 0:57.70 | 31318 | 35662
6 | 7:55.38 | 0:21.69 | 35663 | 37306
7 | 8:17.32 | 1:21.65 | 37307 | 43446
8 | 9:39.22 | 0:44.29 | 43447 | 46775
9 | 10:23.51 | 3:10.33 | 46776 | 61058
10 | 13:34.09 | 2:46.13 | 61059 | 73521
11 | 16:20.22 | 1:23.44 | 73522 | 79790
12 | 17:43.66 | 3:55.73 | 79791 | 97488
13 | 21:39.64 | 0:19.28 | 97489 | 98941
14 | 21:59.17 | 5:38.30 | 98942 | 124321
15 | 27:37.47 | 2:11.18 | 124322 | 134164
16 | 29:48.65 | 2:32.61 | 134165 | 145625
17 | 32:21.51 | 0:20.74 | 145626 | 147199
18 | 32:42.50 | 5:22.50 | 147200 | 171399
19 | 38:05.25 | 0:31.35 | 171400 | 173759
20 | 38:36.60 | 3:38.53 | 173760 | 190162
21 | 42:15.38 | 1:36.19 | 190163 | 197381
22 | 43:51.57 | 6:08.11 | 197382 | 224992
23 | 49:59.68 | 0:48.50 | 224993 | 228642
24 | 50:48.43 | 2:12.18 | 228643 | 238560
25 | 53:00.61 | 3:15.04 | 238561 | 253189
26 | 56:15.65 | 0:32.25 | 253190 | 255614
27 | 56:48.15 | 4:20.57 | 255615 | 275171
28 | 61:08.72 | 2:11.20 | 275172 | 285016
29 | 63:20.17 | 3:13.49 | 285017 | 299540
30 | 66:33.66 | 1:08.19 | 299541 | 304659
31 | 67:42.10 | 6:46.44 | 304660 | 335153


Range status and errors

Selected range

Filename C:\Vilboa\Handel - Partenope CD1.wav

Peak level 98.8 %
Extraction speed 7.1 X
Range quality 99.9 %
Test CRC 5EC1DA6B
Copy CRC 5EC1DA6B
Copy OK

No errors occurred


AccurateRip summary

Track 1 accurately ripped (confidence 23) [3949A4BA] (AR v2)
Track 2 accurately ripped (confidence 24) [BE321D73] (AR v2)
Track 3 accurately ripped (confidence 24) [0764A4B6] (AR v2)
Track 4 accurately ripped (confidence 24) [29CA3A58] (AR v2)
Track 5 accurately ripped (confidence 24) [83F1D466] (AR v2)
Track 6 accurately ripped (confidence 24) [A1411558] (AR v2)
Track 7 accurately ripped (confidence 24) [6C460510] (AR v2)
Track 8 accurately ripped (confidence 24) [396D1178] (AR v2)
Track 9 accurately ripped (confidence 24) [9F37AEF4] (AR v2)
Track 10 accurately ripped (confidence 24) [86DE5A75] (AR v2)
Track 11 accurately ripped (confidence 24) [E52ADD9D] (AR v2)
Track 12 accurately ripped (confidence 24) [B11A7B51] (AR v2)
Track 13 accurately ripped (confidence 24) [8BCE32A0] (AR v2)
Track 14 accurately ripped (confidence 24) [26B8F842] (AR v2)
Track 15 accurately ripped (confidence 24) [50499A72] (AR v2)
Track 16 accurately ripped (confidence 24) [42FD577A] (AR v2)
Track 17 accurately ripped (confidence 24) [CE6210D8] (AR v2)
Track 18 accurately ripped (confidence 24) [2E6C50DF] (AR v2)
Track 19 accurately ripped (confidence 24) [C4B28654] (AR v2)
Track 20 accurately ripped (confidence 24) [C6CDD1F8] (AR v2)
Track 21 accurately ripped (confidence 24) [AA45A6DE] (AR v2)
Track 22 accurately ripped (confidence 24) [F99912B7] (AR v2)
Track 23 accurately ripped (confidence 24) [4A23F39F] (AR v2)
Track 24 accurately ripped (confidence 24) [D886D4F6] (AR v2)
Track 25 accurately ripped (confidence 24) [D8101093] (AR v2)
Track 26 accurately ripped (confidence 24) [660423D0] (AR v2)
Track 27 accurately ripped (confidence 23) [FD7D5FBB] (AR v2)
Track 28 accurately ripped (confidence 24) [44E08F6A] (AR v2)
Track 29 accurately ripped (confidence 24) [45D98B76] (AR v2)
Track 30 accurately ripped (confidence 24) [D0C7A0C0] (AR v2)
Track 31 accurately ripped (confidence 24) [EA555D94] (AR v2)

All tracks accurately ripped

End of status report

–– CUETools DB Plugin V2.1.6

[CTDB TOCID: 3FZeI0Krp6natKKGqEjNeDY_1f0-] found
Submit result: 3FZeI0Krp6natKKGqEjNeDY_1f0- has been confirmed
Track | CTDB Status
1 | (70/70) Accurately ripped
2 | (70/70) Accurately ripped
3 | (70/70) Accurately ripped
4 | (70/70) Accurately ripped
5 | (69/70) Accurately ripped
6 | (70/70) Accurately ripped
7 | (70/70) Accurately ripped
8 | (70/70) Accurately ripped
9 | (70/70) Accurately ripped
10 | (70/70) Accurately ripped
11 | (70/70) Accurately ripped
12 | (70/70) Accurately ripped
13 | (70/70) Accurately ripped
14 | (70/70) Accurately ripped
15 | (70/70) Accurately ripped
16 | (70/70) Accurately ripped
17 | (70/70) Accurately ripped
18 | (70/70) Accurately ripped
19 | (70/70) Accurately ripped
20 | (70/70) Accurately ripped
21 | (70/70) Accurately ripped
22 | (70/70) Accurately ripped
23 | (70/70) Accurately ripped
24 | (70/70) Accurately ripped
25 | (70/70) Accurately ripped
26 | (70/70) Accurately ripped
27 | (69/70) Accurately ripped
28 | (70/70) Accurately ripped
29 | (70/70) Accurately ripped
30 | (70/70) Accurately ripped
31 | (70/70) Accurately ripped


==== Log checksum A1CCB3EAA10556944021F14C39D3E18AA8C38A5F42F4EB24E5E06C187B63260F ====


Exact Audio Copy V1.5 from 20. February 2020

EAC extraction logfile from 27. August 2020, 15:29

Riccardo Minasi, Il Pompo d'oro / Handel - Partenope CD2

Used drive : PIONEER BD-RW BDR-207M Adapter: 1 ID: 1

Read mode : Secure
Utilize accurate stream : Yes
Defeat audio cache : Yes
Make use of C2 pointers : No

Read offset correction : 667
Overread into Lead-In and Lead-Out : No
Fill up missing offset samples with silence : Yes
Delete leading and trailing silent blocks : No
Null samples used in CRC calculations : Yes
Used interface : Native Win32 interface for Win NT & 2000

Used output format : User Defined Encoder
Selected bitrate : 128 kBit/s
Quality : High
Add ID3 tag : No
Command line compressor : C:\Program Files\Exact Audio Copy\Flac\flac.exe
Additional command line options : -V -8 -T "Date=%year%" -T "Genre=%genre%" %source%


TOC of the extracted CD

Track | Start | Length | Start sector | End sector
––––––––––––––––––––––––––––-
1 | 0:00.00 | 0:49.17 | 0 | 3691
2 | 0:49.17 | 3:16.72 | 3692 | 18463
3 | 4:06.14 | 0:43.02 | 18464 | 21690
4 | 4:49.16 | 4:33.66 | 21691 | 42231
5 | 9:23.07 | 0:32.74 | 42232 | 44705
6 | 9:56.06 | 0:22.71 | 44706 | 46426
7 | 10:19.02 | 0:58.59 | 46427 | 50835
8 | 11:17.61 | 0:26.73 | 50836 | 52858
9 | 11:44.59 | 0:54.05 | 52859 | 56913
10 | 12:38.64 | 0:44.07 | 56914 | 60220
11 | 13:22.71 | 0:15.42 | 60221 | 61387
12 | 13:38.38 | 0:44.69 | 61388 | 64756
13 | 14:23.32 | 1:15.16 | 64757 | 70397
14 | 15:38.48 | 1:32.34 | 70398 | 77331
15 | 17:11.07 | 0:42.57 | 77332 | 80538
16 | 17:53.64 | 4:22.52 | 80539 | 100240
17 | 22:16.41 | 1:42.22 | 100241 | 107912
18 | 23:58.63 | 2:28.59 | 107913 | 119071
19 | 26:27.47 | 6:15.69 | 119072 | 147265
20 | 32:43.41 | 0:24.24 | 147266 | 149089
21 | 33:07.65 | 3:05.41 | 149090 | 163005
22 | 36:13.31 | 1:43.39 | 163006 | 170769
23 | 37:56.70 | 3:16.70 | 170770 | 185539
24 | 41:13.65 | 1:19.37 | 185540 | 191501
25 | 42:33.27 | 3:02.50 | 191502 | 205201
26 | 45:36.02 | 1:40.58 | 205202 | 212759
27 | 47:16.60 | 2:36.23 | 212760 | 224482
28 | 49:53.08 | 0:25.62 | 224483 | 226419
29 | 50:18.70 | 6:30.59 | 226420 | 255728
30 | 56:49.54 | 1:04.01 | 255729 | 260529
31 | 57:53.55 | 0:48.61 | 260530 | 264190
32 | 58:42.41 | 4:04.32 | 264191 | 282522


Range status and errors

Selected range

Filename C:\Vilboa\Handel - Partenope CD2.wav

Peak level 99.0 %
Extraction speed 3.8 X
Range quality 100.0 %
Test CRC DF5B9BE2
Copy CRC DF5B9BE2
Copy OK

No errors occurred


AccurateRip summary

Track 1 accurately ripped (confidence 23) [69AFF663] (AR v2)
Track 2 accurately ripped (confidence 23) [AD1DD47B] (AR v2)
Track 3 accurately ripped (confidence 23) [EF6CE85A] (AR v2)
Track 4 accurately ripped (confidence 23) [F37D2F3D] (AR v2)
Track 5 accurately ripped (confidence 23) [27C25E39] (AR v2)
Track 6 accurately ripped (confidence 23) [08698AAF] (AR v2)
Track 7 accurately ripped (confidence 23) [C58C4E82] (AR v2)
Track 8 accurately ripped (confidence 23) [A73767FD] (AR v2)
Track 9 accurately ripped (confidence 23) [0541E954] (AR v2)
Track 10 accurately ripped (confidence 23) [B438612A] (AR v2)
Track 11 accurately ripped (confidence 23) [D856FB80] (AR v2)
Track 12 accurately ripped (confidence 23) [FE3726ED] (AR v2)
Track 13 accurately ripped (confidence 23) [0420D8DC] (AR v2)
Track 14 accurately ripped (confidence 23) [A26D8214] (AR v2)
Track 15 accurately ripped (confidence 23) [ED01B361] (AR v2)
Track 16 accurately ripped (confidence 23) [F30DAA13] (AR v2)
Track 17 accurately ripped (confidence 23) [345C14E1] (AR v2)
Track 18 accurately ripped (confidence 23) [39268F17] (AR v2)
Track 19 accurately ripped (confidence 22) [04AD08F7] (AR v2)
Track 20 accurately ripped (confidence 23) [89DCF3AF] (AR v2)
Track 21 accurately ripped (confidence 23) [A72333AE] (AR v2)
Track 22 accurately ripped (confidence 23) [1D0376A1] (AR v2)
Track 23 accurately ripped (confidence 23) [8E7853A2] (AR v2)
Track 24 accurately ripped (confidence 23) [CEE0F677] (AR v2)
Track 25 accurately ripped (confidence 23) [5ECA58A0] (AR v2)
Track 26 accurately ripped (confidence 23) [472F7242] (AR v2)
Track 27 accurately ripped (confidence 23) [9C1F012E] (AR v2)
Track 28 accurately ripped (confidence 23) [FAA81201] (AR v2)
Track 29 accurately ripped (confidence 23) [AA876811] (AR v2)
Track 30 accurately ripped (confidence 23) [61B80AE4] (AR v2)
Track 31 accurately ripped (confidence 23) [B9DE425F] (AR v2)
Track 32 accurately ripped (confidence 23) [A040F1F8] (AR v2)

All tracks accurately ripped

End of status report

–– CUETools DB Plugin V2.1.6

[CTDB TOCID: 6fc5Dksf88QRK80Htgzgm2Wu06E-] found
Submit result: 6fc5Dksf88QRK80Htgzgm2Wu06E- has been confirmed
Track | CTDB Status
1 | (66/67) Accurately ripped
2 | (67/67) Accurately ripped
3 | (67/67) Accurately ripped
4 | (67/67) Accurately ripped
5 | (67/67) Accurately ripped
6 | (66/67) Accurately ripped
7 | (66/67) Accurately ripped
8 | (67/67) Accurately ripped
9 | (67/67) Accurately ripped
10 | (67/67) Accurately ripped
11 | (67/67) Accurately ripped
12 | (67/67) Accurately ripped
13 | (67/67) Accurately ripped
14 | (67/67) Accurately ripped
15 | (67/67) Accurately ripped
16 | (67/67) Accurately ripped
17 | (67/67) Accurately ripped
18 | (67/67) Accurately ripped
19 | (67/67) Accurately ripped
20 | (67/67) Accurately ripped
21 | (67/67) Accurately ripped
22 | (67/67) Accurately ripped
23 | (67/67) Accurately ripped
24 | (67/67) Accurately ripped
25 | (67/67) Accurately ripped
26 | (67/67) Accurately ripped
27 | (67/67) Accurately ripped
28 | (67/67) Accurately ripped
29 | (67/67) Accurately ripped
30 | (67/67) Accurately ripped
31 | (67/67) Accurately ripped
32 | (67/67) Accurately ripped


==== Log checksum A354EAB168CD6F56D283EA70234537D3397947A515D68F511E22116F2CB30782 ====


Exact Audio Copy V1.5 from 20. February 2020

EAC extraction logfile from 27. August 2020, 16:54

Riccardo Minasi, Il Pompo d'oro / Handel - Partenope CD3

Used drive : PIONEER BD-RW BDR-207M Adapter: 1 ID: 1

Read mode : Secure
Utilize accurate stream : Yes
Defeat audio cache : Yes
Make use of C2 pointers : No

Read offset correction : 667
Overread into Lead-In and Lead-Out : No
Fill up missing offset samples with silence : Yes
Delete leading and trailing silent blocks : No
Null samples used in CRC calculations : Yes
Used interface : Native Win32 interface for Win NT & 2000

Used output format : User Defined Encoder
Selected bitrate : 128 kBit/s
Quality : High
Add ID3 tag : No
Command line compressor : C:\Program Files\Exact Audio Copy\Flac\flac.exe
Additional command line options : -V -8 -T "Date=%year%" -T "Genre=%genre%" %source%


TOC of the extracted CD

Track | Start | Length | Start sector | End sector
––––––––––––––––––––––––––––-
1 | 0:00.00 | 0:36.07 | 0 | 2706
2 | 0:36.07 | 0:46.13 | 2707 | 6169
3 | 1:22.20 | 1:30.51 | 6170 | 12970
4 | 2:52.71 | 1:45.26 | 12971 | 20871
5 | 4:38.22 | 0:55.16 | 20872 | 25012
6 | 5:33.38 | 0:27.68 | 25013 | 27105
7 | 6:01.31 | 2:59.19 | 27106 | 40549
8 | 9:00.50 | 1:05.05 | 40550 | 45429
9 | 10:05.55 | 4:11.60 | 45430 | 64314
10 | 14:17.40 | 1:38.48 | 64315 | 71712
11 | 15:56.13 | 4:04.60 | 71713 | 90072
12 | 20:00.73 | 0:31.12 | 90073 | 92409
13 | 20:32.10 | 2:48.11 | 92410 | 105020
14 | 23:20.21 | 1:04.60 | 105021 | 109880
15 | 24:25.06 | 4:05.24 | 109881 | 128279
16 | 28:30.30 | 1:06.25 | 128280 | 133254
17 | 29:36.55 | 2:48.60 | 133255 | 145914
18 | 32:25.40 | 0:41.45 | 145915 | 149034
19 | 33:07.10 | 1:31.51 | 149035 | 155910
20 | 34:38.61 | 2:15.61 | 155911 | 166096
21 | 36:54.47 | 0:09.38 | 166097 | 166809
22 | 37:04.10 | 2:58.55 | 166810 | 180214
23 | 40:02.65 | 0:31.19 | 180215 | 182558
24 | 40:34.09 | 4:36.69 | 182559 | 203327
25 | 45:11.03 | 0:32.46 | 203328 | 205773
26 | 45:43.49 | 4:05.45 | 205774 | 224193
27 | 49:49.19 | 4:01.52 | 224194 | 242320
28 | 53:50.71 | 0:33.34 | 242321 | 244829
29 | 54:24.30 | 2:01.57 | 244830 | 253961
30 | 56:26.12 | 4:09.04 | 253962 | 272640
31 | 60:35.16 | 3:47.62 | 272641 | 289727
32 | 64:23.03 | 0:19.06 | 289728 | 291158
33 | 64:42.09 | 1:26.15 | 291159 | 297623


Range status and errors

Selected range

Filename C:\Vilboa\Handel - Partenope CD3.wav

Peak level 98.9 %
Extraction speed 2.0 X
Range quality 100.0 %
Test CRC 6789EBD6
Copy CRC 6789EBD6
Copy OK

No errors occurred


AccurateRip summary

Track 1 accurately ripped (confidence 23) [4336E068] (AR v2)
Track 2 accurately ripped (confidence 23) [9F33098F] (AR v2)
Track 3 accurately ripped (confidence 23) [4C2735C0] (AR v2)
Track 4 accurately ripped (confidence 23) [2D53065D] (AR v2)
Track 5 accurately ripped (confidence 23) [870AF618] (AR v2)
Track 6 accurately ripped (confidence 23) [DAE14C7D] (AR v2)
Track 7 accurately ripped (confidence 23) [CD9FCE7C] (AR v2)
Track 8 accurately ripped (confidence 23) [80FC06EE] (AR v2)
Track 9 accurately ripped (confidence 23) [A650C5F0] (AR v2)
Track 10 accurately ripped (confidence 23) [6E570CA5] (AR v2)
Track 11 accurately ripped (confidence 23) [7A039E9E] (AR v2)
Track 12 accurately ripped (confidence 23) [1300B690] (AR v2)
Track 13 accurately ripped (confidence 23) [72D24E11] (AR v2)
Track 14 accurately ripped (confidence 23) [CD3D1E09] (AR v2)
Track 15 accurately ripped (confidence 23) [2539DA98] (AR v2)
Track 16 accurately ripped (confidence 23) [E0811D1B] (AR v2)
Track 17 accurately ripped (confidence 23) [13B53568] (AR v2)
Track 18 accurately ripped (confidence 23) [2AD3A2BD] (AR v2)
Track 19 accurately ripped (confidence 23) [0139FE02] (AR v2)
Track 20 accurately ripped (confidence 23) [4DAE1F17] (AR v2)
Track 21 accurately ripped (confidence 23) [0DFC4D3D] (AR v2)
Track 22 accurately ripped (confidence 23) [471E10F5] (AR v2)
Track 23 accurately ripped (confidence 23) [0D159484] (AR v2)
Track 24 accurately ripped (confidence 23) [9F73C232] (AR v2)
Track 25 accurately ripped (confidence 23) [717CFDD1] (AR v2)
Track 26 accurately ripped (confidence 23) [4F40B491] (AR v2)
Track 27 accurately ripped (confidence 23) [7DB8FC6C] (AR v2)
Track 28 accurately ripped (confidence 23) [A6C80533] (AR v2)
Track 29 accurately ripped (confidence 23) [7D3FB9CF] (AR v2)
Track 30 accurately ripped (confidence 23) [9156AA55] (AR v2)
Track 31 accurately ripped (confidence 23) [95C3C150] (AR v2)
Track 32 accurately ripped (confidence 23) [19D7CF1F] (AR v2)
Track 33 accurately ripped (confidence 23) [5A8C22E5] (AR v2)

All tracks accurately ripped

End of status report

–– CUETools DB Plugin V2.1.6

[CTDB TOCID: tS.eT9CunB.7iTQkTIzEuNd4PBg-] found
Submit result: tS.eT9CunB.7iTQkTIzEuNd4PBg- has been confirmed
Track | CTDB Status
1 | (66/66) Accurately ripped
2 | (66/66) Accurately ripped
3 | (66/66) Accurately ripped
4 | (66/66) Accurately ripped
5 | (66/66) Accurately ripped
6 | (66/66) Accurately ripped
7 | (65/66) Accurately ripped
8 | (66/66) Accurately ripped
9 | (66/66) Accurately ripped
10 | (66/66) Accurately ripped
11 | (66/66) Accurately ripped
12 | (66/66) Accurately ripped
13 | (66/66) Accurately ripped
14 | (66/66) Accurately ripped
15 | (66/66) Accurately ripped
16 | (66/66) Accurately ripped
17 | (66/66) Accurately ripped
18 | (66/66) Accurately ripped
19 | (66/66) Accurately ripped
20 | (66/66) Accurately ripped
21 | (66/66) Accurately ripped
22 | (66/66) Accurately ripped
23 | (66/66) Accurately ripped
24 | (66/66) Accurately ripped
25 | (66/66) Accurately ripped
26 | (66/66) Accurately ripped
27 | (66/66) Accurately ripped
28 | (66/66) Accurately ripped
29 | (66/66) Accurately ripped
30 | (66/66) Accurately ripped
31 | (66/66) Accurately ripped
32 | (66/66) Accurately ripped
33 | (66/66) Accurately ripped


==== Log checksum 94BC18D53A205896C78AB7E1C22435952C32D49630221938A2A50E56CB8212E8 ====