Subcategories

Hanoi Rocks - Lightning Bar Blues: The Albums 1981-1984 (2005) 6CD Box Set

Posted By: Designol
Hanoi Rocks - Lightning Bar Blues: The Albums 1981-1984 (2005) 6CD Box Set

Hanoi Rocks - Lightning Bar Blues: The Albums 1981-1984 (2005) 6CD Box Set
EAC | FLAC | Image (Cue&Log) ~ 1.97 Gb (incl 5%) | Mp3 (CBR320/Stereo) ~ 752 Mb (incl 5%)
Genre: Hard Rock, Glam Rock, Glam Metal | Time: 04:24:06 | Scans included + Box Scans

All six of the albums Hanoi Rocks made in their original incarnation – Bangkok Shocks, Saigon Shakes, Hanoi Rocks, Oriental Beat, Self Destruction Blues, Back to the Mystery City, Two Steps from the Move, and All Those Wasted Years – are packaged together, one album to one CD, in this straightforward six-CD set. There are no extras, just the albums as they were originally released, though there's a 12-page booklet with a solid history of the band and numerous (if small) reproductions of sleeves from their original releases. It's too much at once even for many fans, but for the more dedicated of that lot, it's a handy encapsulation of their primary recorded work. Hearing all of it does make it clear that, although they're often classified as a heavy metal band, they might be more accurately pegged as a hard rock band with substantial traces of glam and pop (and even some bar band blues-rock) along with the metal.

Review by Richie Unterberger, Allmusic.com
Hanoi Rocks - Lightning Bar Blues: The Albums 1981-1984 (2005) 6CD Box Set



–––––––––––––––––––––––––––––––––––––––––-


Hanoi Rocks - Lightning Bar Blues: The Albums 1981-1984 (2005) 6CD Box Set

CD1: Bangkok Shocks, Saigon Shakes, Hanoi Rocks (1981)
EAC | FLAC | Image (Cue&Log) ~ 285 Mb (incl 5%) | Mp3 (CBR320/Stereo) ~ 105 Mb (incl 5%)
Label: Castle/Sanctuary | # CMXBX1104/1 | Time: 00:35:51 | Scans included

Hailing from Finland, Hanoi Rocks burst on the scene in the early '80s with their debut release, Bangkok Shocks, Saigon Shakes, Hanoi Rocks. Producing themselves, the band took the energy and D.I.Y. attitude of the punk movement, and fused it with a love for glam rock to create an in-your-face sonic attack.

Their first release is heavy on melody and full of bravado. Lead singer Michael Monroe doesn't have the best voice in the world, but delivers the lyrics with a perpetual sneer that gives him character. Added to the mix is the razor sharp guitar playing of Andy McCoy, who rips off some impressive solos as on "Don't Never Leave Me." It's all great fun as the band never fails to lock into a solid groove and serve up highly melodic, high-octane rock. "Tragedy" has some wonderful vocal harmonies, and "Village Girl" is set to a tribal, percussive rhythm. A joyous collection of unbridled, youthful rock & roll

Review by Tom Demalon, Allmusic.com
Tracklist:

01. Tragedy (04:06)
02. Village Girl (03:04)
03. Stop Cryin' (03:56)
04. Don't Never Leave Me (03:59)
05. Lost In The City (03:51)
06. First Timer (03:04)
07. Cheyenne (04:01)
08. 11th Street Kids (03:59)
09. Walking With My Angel (02:14)
10. Pretender (03:32)


Exact Audio Copy V1.0 beta 1 from 15. November 2010

EAC extraction logfile from 28. February 2011, 2:32

Hanoi Rocks / Bangkok Shocks Saigon Shakes Hanoi Rocks

Used drive : PLEXTOR DVDR PX-750A Adapter: 0 ID: 3

Read mode : Secure
Utilize accurate stream : Yes
Defeat audio cache : Yes
Make use of C2 pointers : No

Read offset correction : 102
Overread into Lead-In and Lead-Out : No
Fill up missing offset samples with silence : Yes
Delete leading and trailing silent blocks : No
Null samples used in CRC calculations : Yes
Used interface : Native Win32 interface for Win NT & 2000

Used output format : Internal WAV Routines
Sample format : 44.100 Hz; 16 Bit; Stereo


TOC of the extracted CD

Track | Start | Length | Start sector | End sector
––––––––––––––––––––––––––––-
1 | 0:00.32 | 4:06.50 | 32 | 18531
2 | 4:07.07 | 3:04.38 | 18532 | 32369
3 | 7:11.45 | 3:56.00 | 32370 | 50069
4 | 11:07.45 | 3:59.50 | 50070 | 68044
5 | 15:07.20 | 3:51.17 | 68045 | 85386
6 | 18:58.37 | 3:04.00 | 85387 | 99186
7 | 22:02.37 | 4:01.60 | 99187 | 117321
8 | 26:04.22 | 3:59.23 | 117322 | 135269
9 | 30:03.45 | 2:14.37 | 135270 | 145356
10 | 32:18.07 | 3:32.63 | 145357 | 161319


Range status and errors

Selected range

Filename C:\Общий доступ\Game\Hanoi Rocks - The Albums\1981 - Bangkok Shocks Saigon Shakes Hanoi Rocks\Hanoi Rocks - Bangkok Shocks Saigon Shakes Hanoi Rocks.wav

Peak level 98.3 %
Extraction speed 0.2 X
Range quality 100.0 %
Test CRC AE737EB1
Copy CRC AE737EB1
Copy OK

No errors occurred


AccurateRip summary

Track 1 accurately ripped (confidence 2) [E2C2960F]
Track 2 accurately ripped (confidence 2) [7275CEBB]
Track 3 accurately ripped (confidence 2) [67666CC0]
Track 4 accurately ripped (confidence 2) [41F88F7F]
Track 5 accurately ripped (confidence 2) [B9041398]
Track 6 accurately ripped (confidence 2) [C96B0B8E]
Track 7 accurately ripped (confidence 2) [2CD1C8FF]
Track 8 accurately ripped (confidence 2) [0FFE7A18]
Track 9 accurately ripped (confidence 2) [9D6E1EEC]
Track 10 accurately ripped (confidence 2) [8B2FDCC1]

All tracks accurately ripped

End of status report

foobar2000 1.2.1 / Dynamic Range Meter 1.1.1
log date: 2013-02-23 04:03:46

––––––––––––––––––––––––––––––––––––––––
Analyzed: Hanoi Rocks / Bangkok Shocks Saigon Shakes Hanoi Rocks
––––––––––––––––––––––––––––––––––––––––

DR Peak RMS Duration Track
––––––––––––––––––––––––––––––––––––––––
DR11 -0.14 dB -12.02 dB 4:07 01-Tragedy
DR10 -1.16 dB -12.60 dB 3:05 02-Village Girl
DR12 -0.83 dB -13.34 dB 3:56 03-Stop Cryin'
DR12 -0.90 dB -13.79 dB 4:00 04-Don't Never Leave Me
DR10 -0.95 dB -12.75 dB 3:51 05-Lost In The City
DR10 -0.79 dB -12.38 dB 3:04 06-First Timer
DR11 -0.62 dB -12.55 dB 4:02 07-Cheyenne
DR11 -0.80 dB -13.58 dB 3:59 08-11th Street Kids
DR11 -1.29 dB -13.80 dB 2:14 09-Walking With My Angel
DR10 -0.74 dB -12.56 dB 3:33 10-Pretender
––––––––––––––––––––––––––––––––––––––––

Number of tracks: 10
Official DR value: DR11

Samplerate: 44100 Hz
Channels: 2
Bits per sample: 16
Bitrate: 990 kbps
Codec: FLAC
================================================================================


–––––––––––––––––––––––––––––––––––––––––-


Hanoi Rocks - Lightning Bar Blues: The Albums 1981-1984 (2005) 6CD Box Set

CD2: Oriental Beat (1982)
EAC | FLAC | Image (Cue&Log) ~ 268 Mb (incl 5%) | Mp3 (CBR320/Stereo) ~ 105 Mb (incl 5%)
Label: Castle/Sanctuary | # CMXBX1104/2 | Time: 00:35:37 | Scans included

Hanoi Rocks may have been the best hard rock band Finland had to offer the world in 1982, but their sound and look was heavily influenced by the punk scenes of the late '70s in downtown New York and England. Oriental Beat finds Hanoi Rocks bringing the glam sound and look of the New York Dolls into the '80s. Oriental Beat is an album that finds itself slightly out of step with the music scene of the period – it was too late for the prime punk period of the late '70s and it was too early for the pop-metal explosion of the mid-to-late '80s. Oriental Beat is full of big singalong choruses and catchy riffs that would have made the band heavy players either five years earlier or later. The band shows its punk and glam influences not only with its look on the cover of the album but also with the music performed on the album as well. Tracks like "M.C. Baby" and "Oriental Beat" find the band closely resembling English punk rockers the Damned. Guitarist and chief songwriter Andy McCoy does his best Johnny Thunders on "Teenangels Outsiders." Other tracks on the album show the band displaying a sound that would be emulated by many future pop-metal bands. "Motorvatin'" and "Devil Woman" would easily have found a home on MTV circa 1987, and feminine-looking, lipstick-wearing, glammed-out lead singer Michael Monroe's image would have been plastered all over music television right next to Bret Michaels, Vince Neil, and Jon Bon Jovi. Despite a respectable amount of potential on most of the album, poor production limits the effectiveness of many tracks. The drums sound like they were recorded in another building separate from the rest of the band. A slick '80s hit-making producer like Mutt Lange (Def Leppard) or Bob Rock (Mötley Crüe, the Cult) could have made this band huge in the States. Oriental Beat shows where punk would have gone in the '80s if new wave and synthesizers never came along. By listening to this album you can see the influence Hanoi Rocks had on the artists that followed them. In 1984, the band's drummer, Razzle, died in a car accident as a passenger in a car driven by Mötley Crüe's Vince Neil; the band broke up a year later. Due to this tragic turn of events Oriental Beat has to unfortunately stand as an album by a band full of potential that sadly was never given a chance to fulfill it.

Review by Paul Tinelli, Allmusic.com
Tracklist:

01. Motorvatin' (03:13)
02. Don't Follow Me (03:17)
03. Visitor (03:13)
04. Teenangels Outsiders (03:22)
05. Sweet Home Suburbia (04:43)
06. MC Baby (03:01)
07. No Law or Order (03:41)
08. Oriental Beat (03:08)
09. Devil Woman (02:54)
10. Lightnin' Bar Blues (02:39)
11. Fallen Star (02:33)


Exact Audio Copy V1.0 beta 1 from 15. November 2010

EAC extraction logfile from 28. February 2011, 3:15

Hanoi Rocks / Oriental Beat

Used drive : PLEXTOR DVDR PX-750A Adapter: 0 ID: 3

Read mode : Secure
Utilize accurate stream : Yes
Defeat audio cache : Yes
Make use of C2 pointers : No

Read offset correction : 102
Overread into Lead-In and Lead-Out : No
Fill up missing offset samples with silence : Yes
Delete leading and trailing silent blocks : No
Null samples used in CRC calculations : Yes
Used interface : Native Win32 interface for Win NT & 2000

Used output format : Internal WAV Routines
Sample format : 44.100 Hz; 16 Bit; Stereo


TOC of the extracted CD

Track | Start | Length | Start sector | End sector
––––––––––––––––––––––––––––-
1 | 0:00.32 | 3:12.73 | 32 | 14504
2 | 3:13.30 | 3:17.10 | 14505 | 29289
3 | 6:30.40 | 3:13.30 | 29290 | 43794
4 | 9:43.70 | 3:22.10 | 43795 | 58954
5 | 13:06.05 | 4:43.42 | 58955 | 80221
6 | 17:49.47 | 3:01.05 | 80222 | 93801
7 | 20:50.52 | 3:41.08 | 93802 | 110384
8 | 24:31.60 | 3:08.45 | 110385 | 124529
9 | 27:40.30 | 2:54.30 | 124530 | 137609
10 | 30:34.60 | 2:38.72 | 137610 | 149531
11 | 33:13.57 | 2:33.50 | 149532 | 161056


Range status and errors

Selected range

Filename C:\Общий доступ\Game\Hanoi Rocks - The Albums\1982 - Oriental Beat\Hanoi Rocks - Oriental Beat.wav

Peak level 92.3 %
Extraction speed 0.1 X
Range quality 100.0 %
Test CRC 9BA5F392
Copy CRC 9BA5F392
Copy OK

No errors occurred


AccurateRip summary

Track 1 accurately ripped (confidence 4) [5519E497]
Track 2 accurately ripped (confidence 4) [3064B00E]
Track 3 accurately ripped (confidence 4) [D8A0B7CE]
Track 4 accurately ripped (confidence 4) [431CCF51]
Track 5 accurately ripped (confidence 4) [02141BB6]
Track 6 accurately ripped (confidence 4) [F8FF0CDE]
Track 7 accurately ripped (confidence 4) [5A7CAC9F]
Track 8 accurately ripped (confidence 4) [909AEF9F]
Track 9 accurately ripped (confidence 4) [93BF6C5E]
Track 10 accurately ripped (confidence 4) [01D7389C]
Track 11 accurately ripped (confidence 4) [681FBC98]

All tracks accurately ripped

End of status report

foobar2000 1.2.1 / Dynamic Range Meter 1.1.1
log date: 2013-02-23 04:04:25

––––––––––––––––––––––––––––––––––––––––
Analyzed: Hanoi Rocks / Oriental Beat
––––––––––––––––––––––––––––––––––––––––

DR Peak RMS Duration Track
––––––––––––––––––––––––––––––––––––––––
DR10 -1.08 dB -12.25 dB 3:13 01-Motorvatin'
DR10 -1.07 dB -12.23 dB 3:17 02-Don't Follow Me
DR10 -1.24 dB -13.33 dB 3:13 03-Visitor
DR11 -0.69 dB -13.37 dB 3:22 04-Teenangels Outsiders
DR10 -0.80 dB -13.21 dB 4:44 05-Sweet Home Suburbia
DR10 -1.06 dB -12.61 dB 3:01 06-MC Baby
DR11 -1.23 dB -14.97 dB 3:41 07-No Law or Order
DR11 -0.80 dB -14.13 dB 3:09 08-Oriental Beat
DR10 -1.34 dB -13.77 dB 2:54 09-Devil Woman
DR11 -1.08 dB -13.47 dB 2:39 10-Lightnin' Bar Blues
DR12 -5.38 dB -22.69 dB 2:34 11-Fallen Star
––––––––––––––––––––––––––––––––––––––––

Number of tracks: 11
Official DR value: DR11

Samplerate: 44100 Hz
Channels: 2
Bits per sample: 16
Bitrate: 925 kbps
Codec: FLAC
================================================================================


–––––––––––––––––––––––––––––––––––––––––-


Hanoi Rocks - Lightning Bar Blues: The Albums 1981-1984 (2005) 6CD Box Set

CD3: Self Destruction Blues (1983)
EAC | FLAC | Image (Cue&Log) ~ 321 Mb (incl 5%) | Mp3 (CBR320/Stereo) ~ 117 Mb (incl 5%)
Label: Castle/Sanctuary | # CMXBX1104/3 | Time: 00:40:33 | Scans included

Hanoi Rocks resolutely break no bounds on the band's third studio effort, Self Destruction Blues, but then again, anyone expecting that was in the wrong place; those expecting obvious nods to the likes of Ziggy-era Bowie, Mott the Hoople, and the like, though, would be in heaven. Michael Monroe's confident singing, if nowhere near as wonderfully unhinged as the Scandinavian hard rock monsters of the '90s, does the job with the right amount of implied strut and sleaze; if anything, the bizarrely sweet backing vocals on many songs seem to undercut what he's trying to do. Andy McCoy and Nasty Suicide do their expected riff-and-roll, Sam Yaffa doesn't disgrace himself on bass, and the end result is entertaining – if not mind-blowing – fun. The genre exercise of the title track works better than some might have thought, with Monroe blowing on his harmonica in prime Chicago electric blues style and getting a reasonable wail going (the production on the track intentionally sounds old, to boot). The best moments, though, come from the unexpected moments – check the low-key verses on "Café Avenue," with Monroe quietly purring tales of decadence and surviving on the streets, or the giddy pop nuttiness of "Desperados," one of the least threatening, but still fun, rough-guy songs ever. "Kill City" finds drummer Gyp Casino – who was replaced by Razzle after recording and prior to the album's release – pulling off a bit of introductory percussion that might not be out of place on a Santana record. However, the of-the-time synth line on "Whispers in the Dark" should be taken out and shot.

Review by Ned Raggett, Allmusic.com
Tracklist:

01. Love's An Injection (03:15)
02. I Want You (03:21)
03. Cafe Avenue (03:22)
04. Nothing New (03:19)
05. Kill City (04:25)
06. Self Destruction Blues (02:44)
07. Beer And A Cigarette (03:21)
08. Whispers In The Dark (03:33)
09. Taxi Driver (04:11)
10. Desperados (03:58)
11. Problem Child (02:01)
12. Dead By X'Mas (02:58)


Exact Audio Copy V1.0 beta 1 from 15. November 2010

EAC extraction logfile from 28. February 2011, 4:01

Hanoi Rocks / Self Destruction Blues

Used drive : PLEXTOR DVDR PX-750A Adapter: 0 ID: 3

Read mode : Secure
Utilize accurate stream : Yes
Defeat audio cache : Yes
Make use of C2 pointers : No

Read offset correction : 102
Overread into Lead-In and Lead-Out : No
Fill up missing offset samples with silence : Yes
Delete leading and trailing silent blocks : No
Null samples used in CRC calculations : Yes
Used interface : Native Win32 interface for Win NT & 2000

Used output format : Internal WAV Routines
Sample format : 44.100 Hz; 16 Bit; Stereo


TOC of the extracted CD

Track | Start | Length | Start sector | End sector
––––––––––––––––––––––––––––-
1 | 0:00.00 | 3:15.02 | 0 | 14626
2 | 3:15.02 | 3:21.31 | 14627 | 29732
3 | 6:36.33 | 3:22.17 | 29733 | 44899
4 | 9:58.50 | 3:18.73 | 44900 | 59822
5 | 13:17.48 | 4:25.63 | 59823 | 79760
6 | 17:43.36 | 2:44.46 | 79761 | 92106
7 | 20:28.07 | 3:21.27 | 92107 | 107208
8 | 23:49.34 | 3:33.43 | 107209 | 123226
9 | 27:23.02 | 4:11.41 | 123227 | 142092
10 | 31:34.43 | 3:58.16 | 142093 | 159958
11 | 35:32.59 | 2:01.45 | 159959 | 169078
12 | 37:34.29 | 2:58.66 | 169079 | 182494


Range status and errors

Selected range

Filename C:\Общий доступ\Game\Hanoi Rocks - The Albums\1983 - Self Destruction Blues\Hanoi Rocks - Self Destruction Blues.wav

Peak level 100.0 %
Extraction speed 0.1 X
Range quality 100.0 %
Test CRC 41C91B8B
Copy CRC 41C91B8B
Copy OK

No errors occurred


AccurateRip summary

Track 1 accurately ripped (confidence 3) [9909E98D]
Track 2 accurately ripped (confidence 3) [26BD02BE]
Track 3 accurately ripped (confidence 3) [429F9A4D]
Track 4 accurately ripped (confidence 3) [C5F6F84D]
Track 5 accurately ripped (confidence 3) [D20BDB7D]
Track 6 accurately ripped (confidence 3) [ACFEC6D1]
Track 7 accurately ripped (confidence 3) [B6880C68]
Track 8 accurately ripped (confidence 3) [896A844D]
Track 9 accurately ripped (confidence 3) [8A38B505]
Track 10 accurately ripped (confidence 3) [55502ED6]
Track 11 accurately ripped (confidence 3) [060B565E]
Track 12 accurately ripped (confidence 3) [31B54121]

All tracks accurately ripped

End of status report

foobar2000 1.2.1 / Dynamic Range Meter 1.1.1
log date: 2013-02-23 04:05:57

––––––––––––––––––––––––––––––––––––––––
Analyzed: Hanoi Rocks / Self Destruction Blues
––––––––––––––––––––––––––––––––––––––––

DR Peak RMS Duration Track
––––––––––––––––––––––––––––––––––––––––
DR11 0.00 dB -12.38 dB 3:15 01-Love's An Injection
DR10 0.00 dB -11.04 dB 3:21 02-I Want You
DR9 0.00 dB -11.08 dB 3:22 03-Cafe Avenue
DR10 0.00 dB -11.89 dB 3:19 04-Nothing New
DR11 0.00 dB -11.94 dB 4:26 05-Kill City
DR12 -0.32 dB -14.29 dB 2:45 06-Self Destruction Blues
DR9 0.00 dB -11.46 dB 3:21 07-Beer And A Cigarette
DR9 0.00 dB -10.99 dB 3:34 08-Whispers In The Dark
DR10 0.00 dB -11.59 dB 4:12 09-Taxi Driver
DR10 0.00 dB -10.81 dB 3:58 10-Desperados
DR8 0.00 dB -10.50 dB 2:02 11-Problem Child
DR9 0.00 dB -11.79 dB 2:59 12-Dead By X'Mas
––––––––––––––––––––––––––––––––––––––––

Number of tracks: 12
Official DR value: DR10

Samplerate: 44100 Hz
Channels: 2
Bits per sample: 16
Bitrate: 991 kbps
Codec: FLAC
================================================================================


–––––––––––––––––––––––––––––––––––––––––-


Hanoi Rocks - Lightning Bar Blues: The Albums 1981-1984 (2005) 6CD Box Set

CD4: Back To Mystery City
EAC | FLAC | Image (Cue&Log) ~ 316 Mb (incl 5%) | Mp3 (CBR320/Stereo) ~ 120 Mb (incl 5%)
Label: Castle/Sanctuary | # CMXBX1104/4 | Time: 00:41:50 | Scans included

Having so obviously worshipped at the altar of Mott the Hoople for much of their career, it's little surprise that for their fourth album Hanoi Rocks went straight to the source, getting both Dale Buffin Griffin and Pete "Overend" Watts to produce Back to Mystery City. Whatever else they brought to the sessions, the duo makes Hanoi Rocks sound like a much more powerful band than before; compared to Self Destruction Blues, the riffs are more explosive, the drumming pounding, and Michael Monroe is in full swing. The aura of '50s rave-up, '70s glam party, and '80s hard rock chaos that the band made their own sounds even better than before, but the production duo also made even more room for intriguing experiments within the songs themselves. Thus, the full-on glam stomp, mock-Burundi drums, and animal noises during the merry romp "Tooting Bec Wreck" (one of many Hanoi Rocks songs paying homage to home-away-from-home London), or the clearly obvious "Mony Mony" steal from the title track, with reverbed vocals working wonders. One thing's for sure: calling the first song "Strange Boys Play Weird Openings," and having it be a mock rustic folk song – with acoustic guitars, flutes, and chirping birds – is a great way to have fun. More so, admittedly, when things suddenly kick into the brilliant rocker "Malibu Beach Nightmare." Other songs, like "Beating Gets Faster" and "Ice Cream Summer" (gratuitous misogyny aside), may be more Hanoi Rocks by-the-numbers, but it's a good enough pattern to follow. In their own way, they weren't so much pioneers as followers of a style that not many attempted at the time. They get extra points, as well, for having one of the more entertainingly crude song titles around: "Lick Summer Love."

Review by Ned Raggett, Allmusic.com
Tracklist:

01. Strange Boys Play Weird Openings (00:43)
02. Malibu Beach Nightmare (02:46)
03. Mental Beat (05:02)
04. Tooting Bec Wreck (06:11)
05. Until I Get You (04:37)
06. Sailing Down The Tears (04:09)
07. Lick Summer Love (04:22)
08. Beating Gets Faster (03:51)
09. Ice Cream Summer (05:09)
10. Back To Mystery City (04:55)


Exact Audio Copy V1.0 beta 1 from 15. November 2010

EAC extraction logfile from 28. February 2011, 4:43

Hanoi Rocks / Back To Mystery City

Used drive : PLEXTOR DVDR PX-750A Adapter: 0 ID: 3

Read mode : Secure
Utilize accurate stream : Yes
Defeat audio cache : Yes
Make use of C2 pointers : No

Read offset correction : 102
Overread into Lead-In and Lead-Out : No
Fill up missing offset samples with silence : Yes
Delete leading and trailing silent blocks : No
Null samples used in CRC calculations : Yes
Used interface : Native Win32 interface for Win NT & 2000

Used output format : Internal WAV Routines
Sample format : 44.100 Hz; 16 Bit; Stereo


TOC of the extracted CD

Track | Start | Length | Start sector | End sector
––––––––––––––––––––––––––––-
1 | 0:00.32 | 0:43.25 | 32 | 3281
2 | 0:43.57 | 2:46.58 | 3282 | 15789
3 | 3:30.40 | 5:02.55 | 15790 | 38494
4 | 8:33.20 | 6:11.32 | 38495 | 66351
5 | 14:44.52 | 4:37.28 | 66352 | 87154
6 | 19:22.05 | 4:09.60 | 87155 | 105889
7 | 23:31.65 | 4:22.22 | 105890 | 125561
8 | 27:54.12 | 3:51.28 | 125562 | 142914
9 | 31:45.40 | 5:09.60 | 142915 | 166149
10 | 36:55.25 | 4:55.07 | 166150 | 188281


Range status and errors

Selected range

Filename C:\Общий доступ\Game\Hanoi Rocks - The Albums\1983 - Back To Mystery City\Hanoi Rocks - Back To Mystery City.wav

Peak level 100.0 %
Extraction speed 0.2 X
Range quality 99.9 %
Test CRC F6F090D7
Copy CRC F6F090D7
Copy OK

No errors occurred


AccurateRip summary

Track 1 accurately ripped (confidence 3) [1D3FB731]
Track 2 accurately ripped (confidence 3) [F4861088]
Track 3 accurately ripped (confidence 3) [A558C775]
Track 4 accurately ripped (confidence 3) [B1C7D1C9]
Track 5 accurately ripped (confidence 3) [BEFF6971]
Track 6 accurately ripped (confidence 3) [F4E832FB]
Track 7 accurately ripped (confidence 3) [2847ABB2]
Track 8 accurately ripped (confidence 3) [F90A2B52]
Track 9 accurately ripped (confidence 3) [0879D8DA]
Track 10 accurately ripped (confidence 3) [F5CA61EE]

All tracks accurately ripped

End of status report

foobar2000 1.2.1 / Dynamic Range Meter 1.1.1
log date: 2013-02-23 04:05:12

––––––––––––––––––––––––––––––––––––––––
Analyzed: Hanoi Rocks / Back To Mystery City
––––––––––––––––––––––––––––––––––––––––

DR Peak RMS Duration Track
––––––––––––––––––––––––––––––––––––––––
DR15 -1.95 dB -25.67 dB 0:43 01-Strange Boys Play Weird Openings
DR9 0.00 dB -10.35 dB 2:47 02-Malibu Beach Nightmare
DR9 0.00 dB -10.33 dB 5:03 03-Mental Beat
DR9 0.00 dB -10.07 dB 6:11 04-Tooting Bec Wreck
DR9 -0.04 dB -10.82 dB 4:37 05-Until I Get You
DR10 0.00 dB -10.90 dB 4:10 06-Sailing Down The Tears
DR11 0.00 dB -11.82 dB 4:22 07-Lick Summer Love
DR10 0.00 dB -11.87 dB 3:51 08-Beating Gets Faster
DR10 0.00 dB -10.81 dB 5:10 09-Ice Cream Summer
DR10 0.00 dB -11.27 dB 4:55 10-Back To Mystery City
––––––––––––––––––––––––––––––––––––––––

Number of tracks: 10
Official DR value: DR10

Samplerate: 44100 Hz
Channels: 2
Bits per sample: 16
Bitrate: 944 kbps
Codec: FLAC
================================================================================


–––––––––––––––––––––––––––––––––––––––––-


Hanoi Rocks - Lightning Bar Blues: The Albums 1981-1984 (2005) 6CD Box Set

CD5: All Those Wasted Years… (1984)
EAC | FLAC | Image (Cue&Log) ~ 529 Mb (incl 5%) | Mp3 (CBR320/Stereo) ~ 183 Mb (incl 5%)
Label: Castle/Sanctuary | # CMXBX1104/5 | Time: 01:08:26 | Scans included

Although many would like to forget the '80s glam rock movement, there's no denying that one of the genre's leaders, the oft-overlooked Hanoi Rocks, were by far the best. Unlike other bands of the era whose influences were strictly heavy metal, Hanoi had roots in punk rock (Stooges, Ramones) as well as hard rock. Their 1985 double live album, All Those Wasted Years, shows that they were the real deal (as well as a major influence on future raunch-rockers Guns N' Roses). Nearly all of the band's best tracks are included here, such as "Back to Mystery City," "Motorvatin'," "Mental Beat," and "Taxi Driver." Also included is a triple-shot encore of cover songs: Alice Cooper's "Under My Wheels," the Stooges' "I Feel Alright" (aka "1970"), and the Yardbirds/Aerosmith standard "Train Kept A-Rollin'." The death of drummer Razzle a year after this concert was recorded proved a crippling blow for the band, and they splintered not long after – which is sad, because Hanoi Rocks had the talent to put all the other glam metal bands of the '80s to shame.

Review by Greg Prato, Allmusic.com
Tracklist:

01. Pipeline (01:57)
02. Oriental Beat (03:14)
03. Back To Mystery City (04:32)
04. Motorvatin' (03:21)
05. Until I Get You (04:33)
06. Mental Beat (06:06)
07. Don't Never Leave Me (04:38)
08. Tragedy (03:48)
09. Malibu Beach Nightmare (02:53)
10. Visitor (03:13)
11. 11th Street Kids (04:25)
12. Taxi Driver (04:39)
13. Lost In The City (03:50)
14. Lightnin' Bar Blues (03:09)
15. Beer And Cigarette (03:20)
16. Under My Wheels (03:01)
17. I Feel Allright (04:45)
18. Train Kept-A-Rollin' (02:55)


Exact Audio Copy V1.0 beta 1 from 15. November 2010

EAC extraction logfile from 28. February 2011, 10:13

Hanoi Rocks / All Those Wasted Years…

Used drive : PLEXTOR DVDR PX-750A Adapter: 0 ID: 3

Read mode : Secure
Utilize accurate stream : Yes
Defeat audio cache : Yes
Make use of C2 pointers : No

Read offset correction : 102
Overread into Lead-In and Lead-Out : No
Fill up missing offset samples with silence : Yes
Delete leading and trailing silent blocks : No
Null samples used in CRC calculations : Yes
Used interface : Native Win32 interface for Win NT & 2000

Used output format : Internal WAV Routines
Sample format : 44.100 Hz; 16 Bit; Stereo


TOC of the extracted CD

Track | Start | Length | Start sector | End sector
––––––––––––––––––––––––––––-
1 | 0:00.32 | 1:57.68 | 32 | 8874
2 | 1:58.25 | 3:14.50 | 8875 | 23474
3 | 5:13.00 | 4:32.32 | 23475 | 43906
4 | 9:45.32 | 3:21.10 | 43907 | 58991
5 | 13:06.42 | 4:33.30 | 58992 | 79496
6 | 17:39.72 | 6:06.35 | 79497 | 106981
7 | 23:46.32 | 4:38.18 | 106982 | 127849
8 | 28:24.50 | 3:48.25 | 127850 | 144974
9 | 32:13.00 | 2:53.07 | 144975 | 157956
10 | 35:06.07 | 3:13.28 | 157957 | 172459
11 | 38:19.35 | 4:25.27 | 172460 | 192361
12 | 42:44.62 | 4:39.38 | 192362 | 213324
13 | 47:24.25 | 3:50.00 | 213325 | 230574
14 | 51:14.25 | 3:08.72 | 230575 | 244746
15 | 54:23.22 | 3:20.70 | 244747 | 259816
16 | 57:44.17 | 3:01.18 | 259817 | 273409
17 | 60:45.35 | 4:45.10 | 273410 | 294794
18 | 65:30.45 | 2:55.62 | 294795 | 307981


Range status and errors

Selected range

Filename C:\Общий доступ\Game\Hanoi Rocks - The Albums\1984 - All Those Wasted Years\Hanoi Rocks - All Those Wasted Years….wav

Peak level 100.0 %
Extraction speed 0.1 X
Range quality 100.0 %
Test CRC 17B47E66
Copy CRC 17B47E66
Copy OK

No errors occurred


AccurateRip summary

Track 1 accurately ripped (confidence 3) [C7532C14]
Track 2 accurately ripped (confidence 3) [8B9BBA83]
Track 3 accurately ripped (confidence 3) [3BFD6434]
Track 4 accurately ripped (confidence 3) [91537121]
Track 5 accurately ripped (confidence 3) [BFBC1EA0]
Track 6 accurately ripped (confidence 3) [94A2933C]
Track 7 accurately ripped (confidence 3) [EF2362CE]
Track 8 accurately ripped (confidence 3) [E1E61B22]
Track 9 accurately ripped (confidence 3) [4651C501]
Track 10 accurately ripped (confidence 3) [6209658C]
Track 11 accurately ripped (confidence 3) [061C7639]
Track 12 accurately ripped (confidence 3) [160F1D2E]
Track 13 accurately ripped (confidence 3) [3FEE9FF6]
Track 14 accurately ripped (confidence 3) [363C32F9]
Track 15 accurately ripped (confidence 3) [3D858071]
Track 16 accurately ripped (confidence 3) [223C0C8F]
Track 17 accurately ripped (confidence 3) [05D14FE6]
Track 18 accurately ripped (confidence 3) [FE83AC98]

All tracks accurately ripped

End of status report

foobar2000 1.2.1 / Dynamic Range Meter 1.1.1
log date: 2013-02-23 04:07:13

––––––––––––––––––––––––––––––––––––––––
Analyzed: Hanoi Rocks / All Those Wasted Years…
––––––––––––––––––––––––––––––––––––––––

DR Peak RMS Duration Track
––––––––––––––––––––––––––––––––––––––––
DR10 0.00 dB -12.75 dB 1:58 01-Pipeline
DR11 0.00 dB -11.76 dB 3:15 02-Oriental Beat
DR10 0.00 dB -10.99 dB 4:32 03-Back To Mystery City
DR10 0.00 dB -11.27 dB 3:21 04-Motorvatin'
DR10 0.00 dB -12.29 dB 4:33 05-Until I Get You
DR12 0.00 dB -13.64 dB 6:06 06-Mental Beat
DR13 0.00 dB -14.31 dB 4:38 07-Don't Never Leave Me
DR10 0.00 dB -11.49 dB 3:48 08-Tragedy
DR11 0.00 dB -12.60 dB 2:53 09-Malibu Beach Nightmare
DR11 0.00 dB -12.81 dB 3:13 10-Visitor
DR13 0.00 dB -14.64 dB 4:25 11-11th Street Kids
DR12 0.00 dB -13.41 dB 4:40 12-Taxi Driver
DR10 0.00 dB -11.85 dB 3:50 13-Lost In The City
DR10 0.00 dB -11.67 dB 3:09 14-Lightnin' Bar Blues
DR12 0.00 dB -14.44 dB 3:21 15-Beer And Cigarette
DR12 0.00 dB -13.93 dB 3:01 16-Under My Wheels
DR12 0.00 dB -14.58 dB 4:45 17-I Feel Allright
DR12 0.00 dB -13.63 dB 2:56 18-Train Kept-A-Rollin'
––––––––––––––––––––––––––––––––––––––––

Number of tracks: 18
Official DR value: DR11

Samplerate: 44100 Hz
Channels: 2
Bits per sample: 16
Bitrate: 994 kbps
Codec: FLAC
================================================================================


–––––––––––––––––––––––––––––––––––––––––-


Hanoi Rocks - Lightning Bar Blues: The Albums 1981-1984 (2005) 6CD Box Set

CD6: Two Steps From the Move (1984)
EAC | FLAC | Image (Cue&Log) ~ 299 Mb (incl 5%) | Mp3 (CBR320/Stereo) ~ 119 Mb (incl 5%)
Label: Castle/Sanctuary | # CMXBX1104/6 | Time: 00:41:35 | Scans included

Had Razzle not died so tragically, there's every reason to believe that Hanoi Rocks could easily have taken things to the next level of hard rock glory. As it is, Two Steps from the Move will have to remain a testimony to what might have been instead of a further springboard. "Up Around the Bend" may have been little more than an easy way of getting a chart hit, but they still got one nonetheless, and the energetic way the band handled the CCR classic showed they were no slouches with the material. Working with Bob Ezrin was the more notable change here; with Dale Buffin Griffin and "Overend" Pete Watts having given Hanoi Rocks their best production yet with Back to the Mystery City, the legendary hard rock producer showed he still had the touch with his work on Two Steps from the Move. He also seemed to have his hand in all the band's doings – nearly all the songs on the album are co-written efforts between Ezrin and various bandmembers, while he contributes everything from percussion to vocals. Given that Hanoi Rocks never made any pretense at being immediate and catchy, it's hardly a case of selling out, more a matter of a pro making everything better – and that he does. In terms of combining the attitude, gang shouts, punk energy, and classic rock burn of the band, things couldn't be better – Monroe sounds phenomenal, the McCoy/Suicide guitar team comes up with some great riffs and even better trade-offs, and the Yaffa/Razzle rhythm section keep it all chugging. Highlights: "Boiler," a perfectly saucy tale about one's lady love using a bit of Brit slang, the heavy-duty strut and stomp of "I Can't Get It," the tearjerker-with-feedback "Don't You Ever Leave Me," and "Boulevard of Broken Dreams," as perfect a neo-Mott the Hoople anthem as any.

Review by Ned Raggett, Allmusic.com
Tracklist:

01. Up Around The Bend (03:09)
02. High School (03:54)
03. I Cant Get It (04:15)
04. Underwater World (05:19)
05. Don't You Ever Leave Me (04:06)
06. Million Miles Away (04:50)
07. Boulevard Of Broken Dreams (04:05)
08. Boiler (Me Boiler 'N' Me) (04:25)
09. Futurama (03:09)
10. Cutting Corners (04:18)


Exact Audio Copy V1.0 beta 1 from 15. November 2010

EAC extraction logfile from 28. February 2011, 5:31

Hanoi Rocks / Two Steps From The Move

Used drive : PLEXTOR DVDR PX-750A Adapter: 0 ID: 3

Read mode : Secure
Utilize accurate stream : Yes
Defeat audio cache : Yes
Make use of C2 pointers : No

Read offset correction : 102
Overread into Lead-In and Lead-Out : No
Fill up missing offset samples with silence : Yes
Delete leading and trailing silent blocks : No
Null samples used in CRC calculations : Yes
Used interface : Native Win32 interface for Win NT & 2000

Used output format : Internal WAV Routines
Sample format : 44.100 Hz; 16 Bit; Stereo


TOC of the extracted CD

Track | Start | Length | Start sector | End sector
––––––––––––––––––––––––––––-
1 | 0:00.00 | 3:09.50 | 0 | 14224
2 | 3:09.50 | 3:54.22 | 14225 | 31796
3 | 7:03.72 | 4:15.20 | 31797 | 50941
4 | 11:19.17 | 5:19.68 | 50942 | 74934
5 | 16:39.10 | 4:06.27 | 74935 | 93411
6 | 20:45.37 | 4:50.33 | 93412 | 115194
7 | 25:35.70 | 4:05.52 | 115195 | 133621
8 | 29:41.47 | 4:25.00 | 133622 | 153496
9 | 34:06.47 | 3:09.43 | 153497 | 167714
10 | 37:16.15 | 4:18.60 | 167715 | 187124


Range status and errors

Selected range

Filename C:\Общий доступ\Game\Hanoi Rocks - The Albums\1984 - Two Steps From The Move\Hanoi Rocks - Two Steps From The Move.wav

Peak level 100.0 %
Extraction speed 0.2 X
Range quality 100.0 %
Test CRC 79D909CF
Copy CRC 79D909CF
Copy OK

No errors occurred


AccurateRip summary

Track 1 accurately ripped (confidence 3) [11644CA2]
Track 2 accurately ripped (confidence 3) [CE4F8AF5]
Track 3 accurately ripped (confidence 3) [0B2D54F1]
Track 4 accurately ripped (confidence 3) [320A9C38]
Track 5 accurately ripped (confidence 3) [D51E95AF]
Track 6 accurately ripped (confidence 3) [6B36C92B]
Track 7 accurately ripped (confidence 3) [8312FA93]
Track 8 accurately ripped (confidence 3) [5D17D0C7]
Track 9 accurately ripped (confidence 3) [1CD1298F]
Track 10 accurately ripped (confidence 3) [5C2B3E36]

All tracks accurately ripped

End of status report

foobar2000 1.2.1 / Dynamic Range Meter 1.1.1
log date: 2013-02-23 04:07:57

––––––––––––––––––––––––––––––––––––––––
Analyzed: Hanoi Rocks / Two Steps From The Move
––––––––––––––––––––––––––––––––––––––––

DR Peak RMS Duration Track
––––––––––––––––––––––––––––––––––––––––
DR10 -0.56 dB -12.78 dB 3:10 01-Up Around The Bend
DR10 -0.56 dB -11.93 dB 3:54 02-High School
DR11 -1.10 dB -13.00 dB 4:15 03-I Cant Get It
DR10 -0.92 dB -12.21 dB 5:20 04-Underwater World
DR10 -0.95 dB -13.45 dB 4:06 05-Don't You Ever Leave Me
DR12 0.00 dB -13.56 dB 4:50 06-Million Miles Away
DR11 -0.76 dB -12.51 dB 4:06 07-Boulevard Of Broken Dreams
DR11 -0.67 dB -13.15 dB 4:25 08-Boiler (Me Boiler 'N' Me)
DR11 -0.89 dB -12.50 dB 3:10 09-Futurama
DR11 -0.37 dB -13.41 dB 4:19 10-Cutting Corners
––––––––––––––––––––––––––––––––––––––––

Number of tracks: 10
Official DR value: DR11

Samplerate: 44100 Hz
Channels: 2
Bits per sample: 16
Bitrate: 896 kbps
Codec: FLAC
================================================================================

Hanoi Rocks - Lightning Bar Blues: The Albums 1981-1984 (2005) 6CD Box Set

–––––––––––––––––––––––––––––––––––––––––-


All thanks to original releaser - lomik70

More interesting music in My Blog