Subcategories

Harem Scarem - Harem Scarem (1991) [Japanese Ed.]

Posted By: Andi_Deris
Harem Scarem - Harem Scarem (1991) [Japanese Ed.]

Harem Scarem - Harem Scarem (1991) [Japanese Ed.]
EAC Rip | APE: Image+Cue+Log | 364 Mb | MP3 CBR 320 kbps | 134 Mb | Scans | 52 Mb | Time: 52:06
Genre: Melodic Hard Rock, Heavy Metal | Label: WEA International Inc. | Cat.#: WPCR-1177

Harem Scarem is the 1991 self-titled debut album by the Canadian hard rock band of the same name. Music videos were shot for the songs; "Slowly Slipping Away", "Honestly", and "With a Little Love". The album charted at #68 on the Canadian charts.

The album consisted of guest appearances from fellow Canadian stars such as Ray Coburn of Honeymoon Suite, Carl Dixon of Coney Hatch and Paul MacAusland of Haywire. It also boasted a co-writing credit by award winning songwriter Christpher Ward of "Black Velvet" fame.



Harem Scarem - Harem Scarem (1991) [Japanese Ed.]


Track Listing

01. Hard To Love (4:29)
02. Distant Memory (4:29)
03. With A Little Love (4:00)
04. Honestly (4:02)
05. Love Reaction (3:53)
06. Slowly Slipping Away (3:45)
07. All Over Again (3:07)
08. Don't Give Your Heart Away (3:29)
09. How Long (5:03)
10. Something To Say (4:44)
11. Slowly Slipping Away (Acoustic Version) (3:36)
12. How Long (Acoustic Version) (3:27)
13. Hard To Love (Acoustic Version) (4:02)

Produced by Kevin Doyle, Harry Hess and Pete Lesperance

The Band

Harry Hess - lead vocals, guitar
Pete Lesperance - lead guitar, backing vocals
Mike Gionet - bass, backing vocals
Darren Smith - drums, backing vocals

Ray Coburn - keyboards
Terry Hatty, Carl Dixon, Marc Ribler and Paul MacAusland - backing vocals

Japanese version has been released in 1994 and contains three acoustic bonus tracks. They're taken from the Acoustic Sessions EP.

Exact Audio Copy V1.0 beta 2 from 29. April 2011

Отчёт EAC об извлечении, выполненном 11. сентября 2011, 19:35

Harem Scarem / Harem Scarem

Дисковод: PIONEER DVD-RW DVR-218L Adapter: 5 ID: 1

Режим чтения : Достоверность
Использование точного потока : Да
Отключение кэша аудио : Да
Использование указателей C2 : Нет

Коррекция смещения при чтении : 6
Способность читать области Lead-in и Lead-out : Нет
Заполнение пропущенных сэмплов тишиной : Да
Удаление блоков с тишиной в начале и конце : Нет
При вычислениях CRC использовались нулевые сэмплы : Да
Интерфейс : Встроенный Win32-интерфейс для Win NT/2000

Выходной формат : Внутренние WAV-операции
Формат сэмплов : 44.100 Гц; 16 бит; стерео


TOC извлечённого CD

Трек | Старт | Длительность | Начальный сектор | Конечный сектор
––––––––––––––––––––––––––––––––––-
1 | 0:00.00 | 4:29.15 | 0 | 20189
2 | 4:29.15 | 4:29.63 | 20190 | 40427
3 | 8:59.03 | 4:00.57 | 40428 | 58484
4 | 12:59.60 | 4:02.15 | 58485 | 76649
5 | 17:02.00 | 3:53.65 | 76650 | 94189
6 | 20:55.65 | 3:45.50 | 94190 | 111114
7 | 24:41.40 | 3:07.48 | 111115 | 125187
8 | 27:49.13 | 3:29.27 | 125188 | 140889
9 | 31:18.40 | 5:03.63 | 140890 | 163677
10 | 36:22.28 | 4:44.32 | 163678 | 185009
11 | 41:06.60 | 3:36.68 | 185010 | 201277
12 | 44:43.53 | 3:27.42 | 201278 | 216844
13 | 48:11.20 | 4:02.20 | 216845 | 235014


Характеристики диапазона извлечения и сообщения об ошибках

Выбранный диапазон

Имя файла E:\Мои раздачи\Harem Scarem - 1991 Harem Scarem (WPCR-1177 1994)\ape\Harem Scarem - Harem Scarem.wav

Пиковый уровень 100.0 %
Скорость извлечения 2.0 X
Качество диапазона 100.0 %
CRC копии B26C952B
Копирование… OK

Ошибок не произошло


AccurateRip: сводка

Трек 1 : извлечено точно (доверие 3) [EF5984F0] (AR v1)
Трек 2 : извлечено точно (доверие 3) [80B3155A] (AR v1)
Трек 3 : извлечено точно (доверие 3) [B18082F4] (AR v1)
Трек 4 : извлечено точно (доверие 3) [F5497153] (AR v1)
Трек 5 : извлечено точно (доверие 3) [71FC3F63] (AR v1)
Трек 6 : извлечено точно (доверие 3) [431051F8] (AR v1)
Трек 7 : извлечено точно (доверие 3) [47DAA682] (AR v1)
Трек 8 : извлечено точно (доверие 3) [F9C3BF75] (AR v1)
Трек 9 : извлечено точно (доверие 3) [AD25CE0D] (AR v1)
Трек 10 : извлечено точно (доверие 3) [75CFC6FC] (AR v1)
Трек 11 : извлечено точно (доверие 3) [C9F72E11] (AR v1)
Трек 12 : извлечено точно (доверие 3) [7E9AA3F1] (AR v1)
Трек 13 : извлечено точно (доверие 3) [175B4EBD] (AR v1)

Все треки извлечены точно

Конец отчёта

==== Контрольная сумма отчёта FD6B0764760ABD7C78D875651AE3CDE3EF315D0D9E7F8A39C5AB3FBCDEC765E8 ====


Many thanks to the original uploader: Manstr