Subcategories

Harem Scarem - United (2017)

Posted By: Pisulik
Harem Scarem - United (2017)

Harem Scarem - United (2017)
EAC Rip | FLAC (Tracks) +cue, log, m3u, scans - 364 MB | 00:45:04
Hard Rock, Melodic Rock, AOR | Label: Frontiers Records

Harem Scarem's 14th studio album, United, will be released on May 12th. The new recording offers up 11 tracks of trademark Harem Scarem music from Harry Hess (lead vocals, keyboards), Pete Lesperance (guitars, bass, keyboards), long-time drummer Creighton Doane, and backing vocals from original sticksman Darren Smith (who will be playing live drums for the band on tour dates). The band is back and stronger than ever.

TRACKLIST

01. United
02. Here Today, Gone Tomorrow
03. Gravity
04. Sinking Ship
05. One Of Life's Mysteries
06. No Regrets
07. Bite The Bullet
08. Things I Know
09. The Sky Is Falling
10. Heaven And Earth
11. Indestructible

Exact Audio Copy V1.1 from 23. June 2015

EAC extraction logfile from 16. July 2017, 20:31

Harem Scarem / United

Used drive : TSSTcorpCDDVDW SH-224DB Adapter: 1 ID: 0

Read mode : Secure
Utilize accurate stream : Yes
Defeat audio cache : Yes
Make use of C2 pointers : No

Read offset correction : 6
Overread into Lead-In and Lead-Out : No
Fill up missing offset samples with silence : Yes
Delete leading and trailing silent blocks : No
Null samples used in CRC calculations : Yes
Used interface : Native Win32 interface for Win NT & 2000
Gap handling : Appended to previous track

Used output format : User Defined Encoder
Selected bitrate : 1024 kBit/s
Quality : High
Add ID3 tag : No
Command line compressor : C:\Program Files (x86)\Exact Audio Copy\win64\flac.exe
Additional command line options : -8 -V -T "ARTIST=%artist%" -T "TITLE=%title%" -T "ALBUM=%albumtitle%" -T "DATE=%year%" -T "TRACKNUMBER=%tracknr%" -T "GENRE=%genre%" -T "COMMENT=%comment%" %source% -o %dest%


TOC of the extracted CD

Track | Start | Length | Start sector | End sector
––––––––––––––––––––––––––––-
1 | 0:00.00 | 4:45.18 | 0 | 21392
2 | 4:45.18 | 3:27.18 | 21393 | 36935
3 | 8:12.36 | 4:04.63 | 36936 | 55298
4 | 12:17.24 | 4:11.56 | 55299 | 74179
5 | 16:29.05 | 3:57.26 | 74180 | 91980
6 | 20:26.31 | 4:05.18 | 91981 | 110373
7 | 24:31.49 | 3:53.42 | 110374 | 127890
8 | 28:25.16 | 4:03.66 | 127891 | 146181
9 | 32:29.07 | 3:51.51 | 146182 | 163557
10 | 36:20.58 | 3:47.10 | 163558 | 180592
11 | 40:07.68 | 5:00.24 | 180593 | 203116


Track 1

Filename F:\Sket4er\Harem Scarem – United 2017\01 United.wav

Pre-gap length 0:00:02.00

Peak level 100.0 %
Extraction speed 2.0 X
Track quality 100.0 %
Test CRC C19B872D
Copy CRC C19B872D
Cannot be verified as accurate (confidence 4) [1AB74583], AccurateRip returned [CAB186F6] (AR v2)
Copy OK

Track 2

Filename F:\Sket4er\Harem Scarem – United 2017\02 Here Today, Gone Tomorrow.wav

Peak level 100.0 %
Extraction speed 2.1 X
Track quality 100.0 %
Test CRC 34F1BC83
Copy CRC 34F1BC83
Cannot be verified as accurate (confidence 4) [E547E378], AccurateRip returned [508CB87D] (AR v2)
Copy OK

Track 3

Filename F:\Sket4er\Harem Scarem – United 2017\03 Gravity.wav

Peak level 100.0 %
Extraction speed 2.3 X
Track quality 100.0 %
Test CRC B81C39F4
Copy CRC B81C39F4
Cannot be verified as accurate (confidence 4) [5BAD6C04], AccurateRip returned [EF44BEB9] (AR v2)
Copy OK

Track 4

Filename F:\Sket4er\Harem Scarem – United 2017\04 Sinking Ship.wav

Peak level 100.0 %
Extraction speed 2.5 X
Track quality 100.0 %
Test CRC 339416BC
Copy CRC 339416BC
Cannot be verified as accurate (confidence 4) [D60F1290], AccurateRip returned [0A40469C] (AR v2)
Copy OK

Track 5

Filename F:\Sket4er\Harem Scarem – United 2017\05 One Of Life’s Mysteries.wav

Peak level 100.0 %
Extraction speed 2.1 X
Track quality 99.9 %
Test CRC 8DDCCBFE
Copy CRC 8DDCCBFE
Cannot be verified as accurate (confidence 4) [0F59CBDE], AccurateRip returned [CBD5EB11] (AR v2)
Copy OK

Track 6

Filename F:\Sket4er\Harem Scarem – United 2017\06 No Regrets.wav

Peak level 100.0 %
Extraction speed 2.7 X
Track quality 100.0 %
Test CRC 731C752C
Copy CRC 731C752C
Cannot be verified as accurate (confidence 4) [74EC2A93], AccurateRip returned [B574CF17] (AR v2)
Copy OK

Track 7

Filename F:\Sket4er\Harem Scarem – United 2017\07 Bite The Bullet.wav

Peak level 100.0 %
Extraction speed 2.8 X
Track quality 100.0 %
Test CRC 6B06CC05
Copy CRC 6B06CC05
Cannot be verified as accurate (confidence 4) [594DA894], AccurateRip returned [A1C90B82] (AR v2)
Copy OK

Track 8

Filename F:\Sket4er\Harem Scarem – United 2017\08 Things I Know.wav

Peak level 100.0 %
Extraction speed 3.0 X
Track quality 100.0 %
Test CRC E068B5D0
Copy CRC E068B5D0
Cannot be verified as accurate (confidence 4) [F2C8D24E], AccurateRip returned [28109C22] (AR v2)
Copy OK

Track 9

Filename F:\Sket4er\Harem Scarem – United 2017\09 The Sky Is Falling.wav

Peak level 100.0 %
Extraction speed 3.1 X
Track quality 100.0 %
Test CRC 1FCC9551
Copy CRC 1FCC9551
Cannot be verified as accurate (confidence 4) [EA9EEE7F], AccurateRip returned [35B39986] (AR v2)
Copy OK

Track 10

Filename F:\Sket4er\Harem Scarem – United 2017\10 Heaven And Earth.wav

Peak level 100.0 %
Extraction speed 3.1 X
Track quality 100.0 %
Test CRC 76D37635
Copy CRC 76D37635
Cannot be verified as accurate (confidence 4) [82605B69], AccurateRip returned [A3CA72C2] (AR v2)
Copy OK

Track 11

Filename F:\Sket4er\Harem Scarem – United 2017\11 Indestructible.wav

Peak level 100.0 %
Extraction speed 3.3 X
Track quality 100.0 %
Test CRC 8D07DE86
Copy CRC 8D07DE86
Cannot be verified as accurate (confidence 4) [62840B35], AccurateRip returned [4FD937A1] (AR v2)
Copy OK


No tracks could be verified as accurate
You may have a different pressing from the one(s) in the database

No errors occurred

End of status report

–– CUETools DB Plugin V2.1.6

[CTDB TOCID: nQ3PGOCtxu9.7k5G3HfaP3PXWuU-] found
Submit result: nQ3PGOCtxu9.7k5G3HfaP3PXWuU- has been confirmed
Track | CTDB Status
1 | (10/10) Accurately ripped
2 | (10/10) Accurately ripped
3 | (10/10) Accurately ripped
4 | (10/10) Accurately ripped
5 | (10/10) Accurately ripped
6 | (10/10) Accurately ripped
7 | (10/10) Accurately ripped
8 | (10/10) Accurately ripped
9 | (10/10) Accurately ripped
10 | (10/10) Accurately ripped
11 | (10/10) Accurately ripped


==== Log checksum 31F8A1043E912CA7106A012FC8851B6E4A5A46129DEE324FB54ED7AE47AE0214 ====


All thanks go to the original releaser