Subcategories

Harold Mabern Trio - Kiss Of Fire (2002)

Posted By: popsakov
Harold Mabern Trio - Kiss Of Fire (2002)

Harold Mabern Trio - Kiss Of Fire (2002)
EAC Rip | FLAC (Img) + Cue + Log ~ 493 Mb | MP3 CBR320 ~ 162 Mb
Covers Included (JPG, 300 dpi) | RAR 5% Recovery
Jazz | Venus Records #883629848037

An excellent hard bop pianist, Harold Mabern has remained a highly regarded performer since emerging from the Memphis, Tennessee jazz and R&B scene of the 1950s. Much like fellow Memphis area pianist Phineas Newborn, Jr., Mabern developed a commanding style that combined harmonic and modal sophistication with an impressive technical virtuosity. He is described in The Penguin Guide to Jazz Recordings as "one of the great post-bop pianists".

***************

Track List:

01. How Insensitive [6:31]
02. It's A Lonesome Old Town [5:58]
03. Nancy ( With The Laughing Face) [7:48]
04. Bag's Groove [6:20]
05. Blue Bossa [5:53]
06. Black Orpheus [8:26]
07. Cheese Cake [9:13]
08. Recado Bossa Nova [5:43]
09. Kiss of Fire [4:57]
10. Brazil [4:40]

Personnel:
Harold Mabern - piano
Nat Reeves - bass
Joe Farnsworth - drums
Eric Alexander - tenor sax

Exact Audio Copy V1.0 beta 3 from 29. August 2011

EAC extraction logfile from 8. December 2011, 21:38

Harold Mabern Trio / Kiss of Fire

Used drive : Optiarc DVD RW AD-7561S Adapter: 2 ID: 1

Read mode : Secure
Utilize accurate stream : Yes
Defeat audio cache : Yes
Make use of C2 pointers : No

Read offset correction : 6
Overread into Lead-In and Lead-Out : No
Fill up missing offset samples with silence : Yes
Delete leading and trailing silent blocks : No
Null samples used in CRC calculations : Yes
Used interface : Native Win32 interface for Win NT & 2000

Used output format : Internal WAV Routines
Sample format : 44.100 Hz; 16 Bit; Stereo


TOC of the extracted CD

Track | Start | Length | Start sector | End sector
––––––––––––––––––––––––––––-
1 | 0:00.00 | 6:30.73 | 0 | 29322
2 | 6:30.73 | 5:58.01 | 29323 | 56173
3 | 12:28.74 | 7:47.51 | 56174 | 91249
4 | 20:16.50 | 6:19.50 | 91250 | 119724
5 | 26:36.25 | 5:53.32 | 119725 | 146231
6 | 32:29.57 | 8:26.06 | 146232 | 184187
7 | 40:55.63 | 9:13.24 | 184188 | 225686
8 | 50:09.12 | 5:43.33 | 225687 | 251444
9 | 55:52.45 | 4:57.13 | 251445 | 273732
10 | 60:49.58 | 4:40.29 | 273733 | 294761


Range status and errors

Selected range

Filename C:\Music\Harold Mabern Trio - Kiss of Fire.wav

Peak level 100.0 %
Extraction speed 4.8 X
Range quality 99.9 %
Copy CRC 67AE319C
Copy OK

No errors occurred


AccurateRip summary

Track 1 cannot be verified as accurate (confidence 6) [81EA98F7], AccurateRip returned [38E2FF03] (AR v2)
Track 2 cannot be verified as accurate (confidence 6) [B608F9A9], AccurateRip returned [7608EA1F] (AR v2)
Track 3 cannot be verified as accurate (confidence 6) [3972DE21], AccurateRip returned [76590A3C] (AR v2)
Track 4 cannot be verified as accurate (confidence 6) [EAA07669], AccurateRip returned [E8584480] (AR v2)
Track 5 cannot be verified as accurate (confidence 6) [F5D6BC6B], AccurateRip returned [4DFE3B60] (AR v2)
Track 6 cannot be verified as accurate (confidence 6) [DE2AE69D], AccurateRip returned [8638797C] (AR v2)
Track 7 cannot be verified as accurate (confidence 6) [F6D34EB7], AccurateRip returned [530C7F99] (AR v2)
Track 8 cannot be verified as accurate (confidence 6) [5140F28D], AccurateRip returned [39A1BE52] (AR v2)
Track 9 cannot be verified as accurate (confidence 6) [E15CF69C], AccurateRip returned [53B51D36] (AR v2)
Track 10 cannot be verified as accurate (confidence 6) [9C3DA950], AccurateRip returned [87D16CCA] (AR v2)

No tracks could be verified as accurate
You may have a different pressing from the one(s) in the database

End of status report

–– CUETools DB Plugin V2.1.3

[CTDB TOCID: WUuvgjJLPESFag80wCZ3d4GYquY-] found, Submit result: WUuvgjJLPESFag80wCZ3d4GYquY- has been confirmed
[2868e2b8] (1/1) Accurately ripped

foobar2000 1.2.6 / Dynamic Range Meter 1.1.1
log date: 2017-08-20 09:25:55

––––––––––––––––––––––––––––––––––––––––
Analyzed: Harold Mabern Trio / Kiss of Fire
––––––––––––––––––––––––––––––––––––––––

DR Peak RMS Duration Track
––––––––––––––––––––––––––––––––––––––––
DR6 0.00 dB -6.87 dB 6:31 01-How Insensitive
DR7 0.00 dB -8.70 dB 5:58 02-It's A Lonesome Old Town
DR7 0.00 dB -9.34 dB 7:48 03-Nancy ( With The Laughing Face)
DR8 0.00 dB -9.37 dB 6:20 04-Bag's Groove
DR6 0.00 dB -7.57 dB 5:53 05-Blue Bossa
DR7 0.00 dB -9.18 dB 8:26 06-Black Orpheus
DR6 0.00 dB -6.66 dB 9:13 07-Cheese Cake
DR7 0.00 dB -7.65 dB 5:43 08-Recado Bossa Nova
DR6 0.00 dB -6.98 dB 4:57 09-Kiss of Fire
DR5 0.00 dB -6.05 dB 4:40 10-Brazil
––––––––––––––––––––––––––––––––––––––––

Number of tracks: 10
Official DR value: DR7

Samplerate: 44100 Hz
Channels: 2
Bits per sample: 16
Bitrate: 994 kbps
Codec: FLAC
================================================================================

[CUETools log; Date: 20.08.2017 9:24:06; Version: 2.1.5]
[CTDB TOCID: WUuvgjJLPESFag80wCZ3d4GYquY-] found.
Track | CTDB Status
1 | (33/33) Accurately ripped
2 | (33/33) Accurately ripped
3 | (33/33) Accurately ripped
4 | (33/33) Accurately ripped
5 | (33/33) Accurately ripped
6 | (33/33) Accurately ripped
7 | (33/33) Accurately ripped
8 | (32/33) Accurately ripped
9 | (33/33) Accurately ripped
10 | (30/33) Accurately ripped
[AccurateRip ID: 00198547-00cc8e13-840f5a0a] found.
Track [ CRC | V2 ] Status
01 [08a95363|81ea98f7] (00+02/31) Accurately ripped
02 [1d9b284f|b608f9a9] (00+02/31) Accurately ripped
03 [1a62d804|3972de21] (00+02/31) Accurately ripped
04 [b502c3a4|eaa07669] (00+02/31) Accurately ripped
05 [ad3b96f8|f5d6bc6b] (00+02/30) Accurately ripped
06 [7d5a1658|de2ae69d] (00+02/30) Accurately ripped
07 [d080e569|f6d34eb7] (00+02/30) Accurately ripped
08 [5a5a311a|5140f28d] (00+02/30) Accurately ripped
09 [86fc9dde|e15cf69c] (00+02/30) Accurately ripped
10 [cae38bf4|9c3da950] (00+02/30) Accurately ripped
Offsetted by 36:
01 [38e2ff03] (06/31) Accurately ripped
02 [7608ea1f] (06/31) Accurately ripped
03 [76590a3c] (06/31) Accurately ripped
04 [e8584480] (06/31) Accurately ripped
05 [4dfe3b60] (06/30) Accurately ripped
06 [8638797c] (06/30) Accurately ripped
07 [530c7f99] (06/30) Accurately ripped
08 [39a1be52] (06/30) Accurately ripped
09 [53b51d36] (06/30) Accurately ripped
10 [87d16cca] (06/30) Accurately ripped
Offsetted by 24:
01 [7e251b23] (00/31) No match (V2 was not tested)
02 [ade4542f] (00/31) No match (V2 was not tested)
03 [025c4ed4] (00/31) No match (V2 was not tested)
04 [2c91198c] (00/31) No match (V2 was not tested)
05 [6dbd59e8] (00/30) No match (V2 was not tested)
06 [2dee5870] (00/30) No match (V2 was not tested)
07 [2788a189] (00/30) No match (V2 was not tested)
08 [99df39ea] (00/30) No match (V2 was not tested)
09 [0f779d6e] (00/30) No match (V2 was not tested)
10 [6ea17b72] (00/30) No match (V2 was not tested)

Track Peak [ CRC32 ] [W/O NULL] [ LOG ]
– 100,0 [67AE319C] [C107F2C7] CRC32
01 100,0 [0051E05C] [18EE5AB7]
02 100,0 [B917A4A7] [B3071A77]
03 100,0 [044FE6F8] [D3CFC663]
04 100,0 [92F82888] [8727E2BF]
05 100,0 [B63C1AD1] [3C4DB710]
06 100,0 [60D05AFC] [4E9A5F4E]
07 100,0 [EC200A2E] [0E4E6E2F]
08 100,0 [74D70CD4] [2280DB20]
09 100,0 [02D73B59] [1C8A82A2]
10 100,0 [152373CD] [09C42D28]

Harold Mabern Trio - Kiss Of Fire (2002)

All thanks go to Cost123

>>> My Blog <<<

Download from icerbox.com: