Subcategories

Harry Nilsson (1967 - 1977) [11CDs, Japanese Press] Re-up

Posted By: v3122
Harry Nilsson (1967 - 1977) [11CDs, Japanese Press] Re-up

Harry Nilsson (1967 - 1977) [11CDs, Japanese Press]
Pop Rock / Vocal | EAC Rip | Flac(Image) + Cue + Log and MP3 CBR 320Kbps
Scans | BMG Japan | ~ 3674 or 1648 Mb

Harry Nilsson worked at a bank and wrote songs on the side, mostly jingles and pop tunes in the mid-1960s. Under contract with RCA, his first record was a flop, but it yielded hits for The Monkees and Three Dog Night. In the late 1960s Nilsson was everywhere: pal to the Beatles (especially John and Ringo); singer of "Everybody's Talkin'," the theme to the movie Midnight Cowboy (1969); singer of the theme to the TV show The Courtship of Eddie's Father; composer of the soundtrack to the animated movie The Point (with its hit single "Me and My Arrow"); and singer of the number one hit, "Without You." Nilsson had great vocal range and a pop sensibility that was at turns lyrical and whimsical. He released records in the mid-70s and '80s, but he was no health nut and no stranger to alcohol. He died of an apparent heart attack in 1994.

Answers
Harry Nilsson (1967 - 1977) [11CDs, Japanese Press] Re-up

Harry Nilsson Biography:

Although he synthesized disparate elements of both rock and pop traditions, singer/songwriter Harry Nilsson was at heart a maverick whose allegiance belonged to neither. His initial series of albums in the late '60s made him a personal favorite of the Beatles, who found a natural affinity with his knack for catchy melodies, witty lyrics, and extraordinary vocal range. Thought of as a songwriter first and a performer second, he became a pop star himself in the late '60s and early '70s with "Everybody's Talking" and "Without You." He lost some of his original audience, however, with subsequent detours into pre-rock styles of pop, and did little recording over the last 15 years of his life.

Nilsson had been struggling to make inroads into the music business for over five years before his critically acclaimed 1967 album, Pandemonium Shadow Show. He made demos, sang commercial jingles, and shopped songs, all the while keeping his job at a Los Angeles-area bank. In the mid-'60s, he wrote a few songs with Phil Spector that were recorded by the Ronettes and the Modern Folk Quartet; occasionally he released records of his own. The Monkees recorded his "Cuddly Toy," and the Yardbirds did "Ten Little Indians" on a single in their waning days. But Nilsson didn't quit his bank job until after the release of Pandemonium Shadow Show, which gave him creative rein in the studio for the first time, and showcased his three-and-a-half-octave voice to full advantage.

The album caught the attention of the Beatles (helped, no doubt, by its ingenious medley of classic Beatle tunes, "You Can't Do That"). John Lennon and Paul McCartney named him as their favorite American singer at a press conference, an extraordinary accolade for an unknown. (Nilsson was sometimes even rumored to be joining the group.) Three Dog Night took his "One" into the Top Ten in 1969, and Nilsson's second LP, Aerial Ballet, continued the ambitious pop/rock direction of his debut, marrying his slightly eccentric, bouncy (if sometimes precious) tunes to baroque orchestral production. When one of its songs, "Everybody's Talkin'," was used as the theme for the Midnight Cowboy film, Nilsson had his first Top Ten hit. The irony was that, although Nilsson was primarily identified as a singer/songwriter, the song was actually a cover of a composition by folk-rocker Fred Neil.

But Nilsson would never be content to be pigeonholed into definite categories, as demonstrated by his two 1970 albums. One was devoted entirely to covers of songs by Randy Newman (then just emerging as a performer); another was his soundtrack to an animated children's special, The Point (including the hit "Me and My Arrow"). And it was another cover (of a Badfinger album track) that gave him his biggest single, the number one smash "Without You." Yet Nilsson didn't cash in on his stardom in a conventional manner; he never performed in concert (there were occasional television appearances), preferring to craft his artistry in the studio.

"Without You" appeared on 1971's Nilsson Schmilsson, which included a couple of other hits, the faux-tropical "Coconut" and the surprisingly gritty "Jump Into the Fire," which rates as his hardest-rocking cut. During the first half of the 1970s, he continued to broaden his range from the well-crafted, peppy, sensitive tunes that had dotted his early releases, cutting some tougher, more sour work. He lost some of his constituency, however, with 1973's A Little Touch of Schmilsson in the Night, a collection of pre-rock pop standards with an orchestra conducted by arranger Gordon Jenkins (most noted for his work with Frank Sinatra). His affection for the music wasn't entirely surprising, as there had always been a strong Tin Pan Alley flavor to much of his writing, but it wasn't exactly in step with the times.

Much of Nilsson's notoriety stems from a period in the mid-'70s when he was a drinking buddy of John Lennon in Los Angeles (where Lennon was living during a separation from Yoko Ono). The drunken pair were thrown out of L.A.'s Troubadour club in a well-publicized incident, following which Lennon offered to produce Nilsson's next album. The timing was not opportune; Nilsson lost his voice during the sessions, rupturing one of his vocal cords, keeping it a secret out of fear that Lennon would abandon the project. Released as Pussy Cats, it was his last album to make the Top 100. During the same period, he also embarked on a project with another L.A.-based ex-Beatle, Ringo Starr, acting and writing music for the little-seen Son of Dracula film.

The upper register of Nilsson's voice, which was ultimately his greatest asset, had been permanently (though not irredeemably) damaged. After a few rather unsuccessful late-'70s album, Nilsson withdrew from the studio into family life and other business ventures, spending much of his energies campaigning for gun control after Lennon was shot in 1980. In failing health in the 1990s, diagnosed with diabetes and suffering a massive heart attack, he died in early 1994, just after finishing the vocal tracks for a new album.

~ Richie Unterberger, Rovi


Родился Нильссон в Бруклине, Нью-Йорк (Brooklyn, New York). Родители его отца были шведскими циркачами и танцорами, особенно прославившимися своим 'воздушным балетом' ('aerial ballet'; в честь этого номера, кстати, был назван один из альбомов Нильссона). Отец, Гарри Эдвард Нильссон-младший (Harry Edward Nilsson, Jr.), бросил семью еще в 1944-м. Воспитывала мальчика его мать, Бетт (Bette).

Музыкой Гарри увлекался с самого детства. Его дядя, механик из Сан-Бернардино, Калифорния (San Bernardino, California), помогал ему развивать вокальные и музыкальные навыки.

Работать Нильссон начал рано – семья его была бедной и дополнительное финансирование ей было просто необходимо. Какое-то время Гарри трудился в театре Paramount Theatre в Лос-Анджелесе (Los Angeles); когда же тот закрылся, Нильссон устроился в банк. В резюме он соврал, что успешно окончил школу; на самом деле, к тому времени у него было лишь 9 классов образования. У парня обнаружился настоящий талант компьютерщика – в то время как раз началась активная информатизация банков; справлялся со своими обязанностями он настолько хорошо, что руководство банка не стало его увольнять даже после того, как его ложь об образовании раскрылась. Надо отметить, что банковские компьютеры Гарри настраивал по ночам; днем он продолжал писать песни и петь.

В начале 1958-го Нильссон увлекся новыми видами популярной музыки; особенно по душе ему пришелся ритм-энд-блюз в исполнении музыкантов вроде Рэя Чарльза (Ray Charles). Собственную пластинку Гарри начал пытаться выпустить еще во время работы в 'Paramount'; созданный им вместе с другом – Джерри Смитом (Jerry Smith) – вокальный дуэт работал в манере, схожей с творчеством тех же 'Everly Brothers'. Уроки дяди Джона и прирожденный талант помогли Гарри найти работу; в 1960-м он устроился к поэту-песеннику Скотту Тернеру (Scott Turner). Нильссон пел демонстрационные версии песен Тернера; за каждую из них ему платили по 5 долларов. Впоследствии, когда Гарри уже стал известным, Тернер решил выпустить эти песни отдельным диском и связался с Нильссоном, предложив обсудить вопросы оплаты; тот ответил, что всю положенную оплату он уже получил.

Слава пришла к Гарри уже в 1963-м, когда он вместе с Джоном Марскалько (John Marascalco) работал над песней для Литтл Ричарда (Little Richard). В дальнейшем о таланте молодого автора узнали представители 'Mercury Records'; вскоре у Нильссона уже был контракт.

В 1966-м Гарри связался со студией 'Tower Records'; именно тогда были выпущены первые его синглы, подписанные его настоящим именем (а чуть позже – и дебютный альбом, 'Spotlight on Nilsson'). К сожалению, особого внимания на нового исполнителя слушатели не обратили.

Настоящую славу Гарри принесло сотрудничество с 'RCA Victor'; вышедший в 1967-м альбом 'Pandemonium Shadow Show' был довольно тепло принят критиками – хотя и не очень хорошо расходился. Действительно успешным оказался альбом 1969-го 'Harry'; после него о Нильссоне заговорили уже всерьез.

Некоторое время Гарри успешно работал над различными музыкальными проектами - так, ему довелось потрудиться даже с самим Джоном Ленноном (John Lennon); затем музыкант расстался с 'RCA Victor', и его карьера пошла на спад. Он, однако, продолжал заниматься музыкой – пусть и не так успешно, как раньше.

В 1993-м у Гарри случился сильный сердечный приступ. Пережив его, музыкант связался с 'RCA' и упросил их записать своеобразный ретроспективный альбом, собравший все лучшее из его творчества. Закончил работу над вокальными партиями Нильссон 15-го января 1994-го; этой же ночью у него отказало сердце.
==========================

Harry Nilsson (1967 - 1977) [11CDs, Japanese Press]:

Harry Nilsson (1967 - 1977) [11CDs, Japanese Press] Re-up

CD01: Harry Nilsson - Pandemonium Shadow Show (1967)
Pop Rock / Vocal | EAC Rip | Flac(Image) + Cue + Log and MP3 CBR 320Kbps
Scans | 2002, BMG Japan, BVCM-35113 | ~ 260 or 114 Mb

Harry Nilsson's debut album, Pandemonium Shadow Show, was notoriously loved by the Beatles, and it's easy to see why. This is the only record of its time that feels akin to Sgt. Pepper, and in some ways, it's every bit as impressive. Nilsson works on a much smaller scale, leaning heavily on whimsy yet cutting it with sardonic humor and embellishing it with remarkable song and studiocraft; it's as if McCartney and Lennon were fused into the same body. Pandemonium can't help but feel like a cheeky show of strength by a remarkably gifted imp, spinning out psychedelic fantasias and jokes and trumping his idols by turning out a cover of "She's Leaving Home" (recorded ten days after Sgt. Pepper's release) that rivals the original. Beneath all the light playful melodies ("There Will Never Be" is swinging London, L.A. style) or glorious laments (he rarely equaled "Sleep Late, My Lady Friend"), there are serious strains: the lyrics of "Cuddly Toy" are as unsettling as the melody catchy, the circus-stomp "Ten Little Indians" is a darkly addictive retelling of the Ten Commandments, and "1941" is quietly heartbreaking beneath its jaunty cabaret. Throughout it all, Nilsson impresses with his humor, cleverness, and above all, how his songwriting blossoms under his shockingly inventive studiocraft. Psychedelic pop albums rarely came better than this, and it remains a thorough delight.

by Stephen Thomas Erlewine, AMG
Harry Nilsson (1967 - 1977) [11CDs, Japanese Press] Re-up

Tracklist:

1. Ten Little Indians (2:51)
2. 1941 (2:42)
3. Cuddly Toy (2:52)
4. She Sang Hymns Out Of Tune (2:25)
5. You Can't Do That (2:20)
6. Sleep Late, My Lady Friend (2:45)
7. She's Leaving Home (3:20)
8. There Will Never Be (2:31)
9. Without Her (2:20)
10. Freckles (2:22)
11. It's Been So Long (2:13)
12. River Deep-Mountain High (4:28)
13. As I Wonder Lonely (2:01)
14. She Sang Hymns Out Of Tune[Mono Single Version] (2:20)

Exact Audio Copy V0.99 prebeta 3 from 28. July 2007

EAC extraction logfile from 6. August 2010, 20:00

Harry Nilsson / Pandemonium Shadow Show (BVCM-35113)

Used drive : _NEC DVD_RW ND-2510A Adapter: 1 ID: 0

Read mode : Secure
Utilize accurate stream : Yes
Defeat audio cache : Yes
Make use of C2 pointers : No

Read offset correction : 48
Overread into Lead-In and Lead-Out : No
Fill up missing offset samples with silence : Yes
Delete leading and trailing silent blocks : No
Null samples used in CRC calculations : Yes
Used interface : Native Win32 interface for Win NT & 2000

Used output format : User Defined Encoder
Selected bitrate : 1024 kBit/s
Quality : High
Add ID3 tag : No
Command line compressor : C:\Program Files\Exact Audio Copy\Flac\flac.exe
Additional command line options : -8 -V %s


TOC of the extracted CD

Track | Start | Length | Start sector | End sector
––––––––––––––––––––––––––––-
1 | 0:00.00 | 2:51.52 | 0 | 12876
2 | 2:51.52 | 2:42.53 | 12877 | 25079
3 | 5:34.30 | 2:52.59 | 25080 | 38038
4 | 8:27.14 | 2:25.32 | 38039 | 48945
5 | 10:52.46 | 2:20.48 | 48946 | 59493
6 | 13:13.19 | 2:45.31 | 59494 | 71899
7 | 15:58.50 | 3:20.52 | 71900 | 86951
8 | 19:19.27 | 2:31.06 | 86952 | 98282
9 | 21:50.33 | 2:20.10 | 98283 | 108792
10 | 24:10.43 | 2:22.27 | 108793 | 119469
11 | 26:32.70 | 2:13.45 | 119470 | 129489
12 | 28:46.40 | 4:28.22 | 129490 | 149611
13 | 33:14.62 | 2:01.50 | 149612 | 158736
14 | 35:16.37 | 2:20.74 | 158737 | 169310


Range status and errors

Selected range

Filename I:\Раздача музыки\Nilsson, Harry\Pandemonium Shadow Show (Japanese issue) (1967)\Harry Nilsson - Pandemonium Shadow Show (BVCM-35113).wav

Peak level 100.0 %
Range quality 100.0 %
Test CRC 47DF0CF8
Copy CRC 47DF0CF8
Copy OK

No errors occurred


AccurateRip summary

Track 1 accurately ripped (confidence 2) [813F36DB]
Track 2 accurately ripped (confidence 2) [75973B65]
Track 3 accurately ripped (confidence 2) [30EFFF6B]
Track 4 accurately ripped (confidence 2) [247298B9]
Track 5 accurately ripped (confidence 2) [6D11633C]
Track 6 accurately ripped (confidence 2) [4664ACA4]
Track 7 accurately ripped (confidence 2) [713641D4]
Track 8 accurately ripped (confidence 2) [E2320896]
Track 9 accurately ripped (confidence 2) [C2DC5D6B]
Track 10 accurately ripped (confidence 2) [1B8759D1]
Track 11 accurately ripped (confidence 2) [FC6EE736]
Track 12 accurately ripped (confidence 2) [A6314F3C]
Track 13 accurately ripped (confidence 2) [91F22518]
Track 14 accurately ripped (confidence 2) [A320A57B]

All tracks accurately ripped

End of status report

AUDIOCHECKER v2.0 beta (build 457) - by Dester - opdester@freemail.hu
~~~~~~~~~~~~~~~~~~~~~~~~~~~~~~~~~~
-=== DO NOT EDIT THIS FILE! ===-

Path: …\1967 - Pandemonium Shadow Show (Japanese issue)

01 -=- Harry Nilsson - Pandemonium Shadow Show (BVCM-35113).flac -=- CDDA (100%)

238778100

Verification date: 18.06.2011 1:49:15]
[Disc ID: 00137c38-00cf89cb-c008d10e]
Track [ CRC ] Status
01 [813f36db] (02/02) Accurately ripped as in pressing(s) #1
02 [75973b65] (02/02) Accurately ripped as in pressing(s) #1
03 [30efff6b] (02/02) Accurately ripped as in pressing(s) #1
04 [247298b9] (02/02) Accurately ripped as in pressing(s) #1
05 [6d11633c] (02/02) Accurately ripped as in pressing(s) #1
06 [4664aca4] (02/02) Accurately ripped as in pressing(s) #1
07 [713641d4] (02/02) Accurately ripped as in pressing(s) #1
08 [e2320896] (02/02) Accurately ripped as in pressing(s) #1
09 [c2dc5d6b] (02/02) Accurately ripped as in pressing(s) #1
10 [1b8759d1] (02/02) Accurately ripped as in pressing(s) #1
11 [fc6ee736] (02/02) Accurately ripped as in pressing(s) #1
12 [a6314f3c] (02/02) Accurately ripped as in pressing(s) #1
13 [91f22518] (02/02) Accurately ripped as in pressing(s) #1
14 [a320a57b] (02/02) Accurately ripped as in pressing(s) #1

Track [ CRC32 ] [W/O NULL] [ LOG ]
– [47DF0CF8] [7A2CD073] CRC32
01 [F816F2D3] [7AF81F12]
02 [35CC86C2] [31019816]
03 [406D3F13] [BDB6E680]
04 [E10F9612] [2B838B64]
05 [5298C1A9] [303FF2AF]
06 [D256EC27] [A1F9FCF6]
07 [2CD6CBA5] [10A056E7]
08 [6279AFEE] [4F65BD66]
09 [0928E177] [A058F441]
10 [B81667BB] [5F5CA848]
11 [D3BBA7C5] [772D57B0]
12 [57C012A9] [F6299996]
13 [4AA6FBFC] [5A601F16]
14 [1D7FC563] [17EADE70]

––––––––––––––––––––––––––––––-

Harry Nilsson (1967 - 1977) [11CDs, Japanese Press] Re-up

CD02: Harry Nilsson - Aerial Ballet (1968)
Pop Rock / Vocal | EAC Rip | Flac(Image) + Cue + Log and MP3 CBR 320Kbps
Scans | 2002, BMG Japan, BVCM-35114 | ~ 261 or 112 Mb

As "Good Old Desk" opens Aerial Ballet with a cheerful saunter, it's clear that Harry Nilsson decided to pick up where he left off with his debut, offering another round of effervescent, devilishly clever pop, equal parts lite psychedelia, pretty ballads, and music hall cabaret. It's not a carbon copy, however. In one sense, he entrenches himself a little bit, emphasizing his lighter edges and humor, writing songs so cheerfully lightweight – a love song about his mom and dad, an ode to his favorite desk, an address or two to a "Little Cowboy" – that it may be a little too cloying for some tastes, even for fans of Pandemonium Shadow Show. Those are balanced by a couple major steps forward, namely "Everybody's Talkin'" and "One." The former finds Nilsson adopting a rolling folk-pop backing for a Fred Neil song, making it into an instant, Grammy-winning classic. The latter was the greatest song he had written to date, a haunting tale of loneliness reminiscent of McCartney, yet with its own voice. These are the songs anchoring an album that may be a little lightweight, but it's engagingly, deliberately lightweight. If it's a bit dated, it wears its old charms well.

by Stephen Thomas Erlewine, AMG
Harry Nilsson (1967 - 1977) [11CDs, Japanese Press] Re-up

Tracklist:

1. Daddy's Song (2:44)
2. Good Old Desk (2:22)
3. Don't Leave Me (2:21)
4. Mr. Richland's Favorite Song (2:16)
5. Little Cowboy (1:23)
6. Together (2:12)
7. Harry Nilsson & George Tipton - Everybody's Talkin' (2:46)
8. I Said Goodbye To Me (2:15)
9. Little Cowboy (0:52)
10. Mr. Tinker (2:45)
11. One (2:55)
12. The Wailing Of The Willow (2:02)
13. Bath (2:28)
14. Sister Marie (3:02)
15. Miss Butter's Lament (2:22)
16. Girlfriend (1:49)

Exact Audio Copy V0.99 prebeta 3 from 28. July 2007

EAC extraction logfile from 7. August 2010, 0:23

Harry Nilsson / Aerial Ballet (BVCM-35114)

Used drive : _NEC DVD_RW ND-2510A Adapter: 1 ID: 0

Read mode : Secure
Utilize accurate stream : Yes
Defeat audio cache : Yes
Make use of C2 pointers : No

Read offset correction : 48
Overread into Lead-In and Lead-Out : No
Fill up missing offset samples with silence : Yes
Delete leading and trailing silent blocks : No
Null samples used in CRC calculations : Yes
Used interface : Native Win32 interface for Win NT & 2000

Used output format : User Defined Encoder
Selected bitrate : 1024 kBit/s
Quality : High
Add ID3 tag : No
Command line compressor : C:\Program Files\Exact Audio Copy\Flac\flac.exe
Additional command line options : -8 -V %s


TOC of the extracted CD

Track | Start | Length | Start sector | End sector
––––––––––––––––––––––––––––-
1 | 0:00.00 | 2:44.70 | 0 | 12369
2 | 2:44.70 | 2:22.06 | 12370 | 23025
3 | 5:07.01 | 2:21.59 | 23026 | 33659
4 | 7:28.60 | 2:16.58 | 33660 | 43917
5 | 9:45.43 | 1:23.68 | 43918 | 50210
6 | 11:09.36 | 2:12.57 | 50211 | 60167
7 | 13:22.18 | 2:46.29 | 60168 | 72646
8 | 16:08.47 | 2:15.18 | 72647 | 82789
9 | 18:23.65 | 0:52.02 | 82790 | 86691
10 | 19:15.67 | 2:45.31 | 86692 | 99097
11 | 22:01.23 | 2:55.60 | 99098 | 112282
12 | 24:57.08 | 2:02.39 | 112283 | 121471
13 | 26:59.47 | 2:28.57 | 121472 | 132628
14 | 29:28.29 | 3:02.35 | 132629 | 146313
15 | 32:30.64 | 2:22.02 | 146314 | 156965
16 | 34:52.66 | 1:49.54 | 156966 | 165194


Range status and errors

Selected range

Filename I:\Раздача музыки\Nilsson, Harry\Новая папка\Harry Nilsson - Aerial Ballet (BVCM-35114).wav

Peak level 100.0 %
Range quality 99.9 %
Test CRC 1A4E4640
Copy CRC 1A4E4640
Copy OK

No errors occurred


AccurateRip summary

Track 1 accurately ripped (confidence 3) [8E5B0832]
Track 2 accurately ripped (confidence 3) [4D3594DA]
Track 3 accurately ripped (confidence 3) [8ED2B6BC]
Track 4 accurately ripped (confidence 3) [79B96718]
Track 5 accurately ripped (confidence 3) [31942024]
Track 6 accurately ripped (confidence 3) [741A441E]
Track 7 accurately ripped (confidence 3) [BE7D3664]
Track 8 accurately ripped (confidence 3) [CB723E86]
Track 9 accurately ripped (confidence 3) [B54CB42D]
Track 10 accurately ripped (confidence 3) [7E88587B]
Track 11 accurately ripped (confidence 3) [2D35BEF8]
Track 12 accurately ripped (confidence 3) [9F7BE22C]
Track 13 accurately ripped (confidence 3) [95F30F3F]
Track 14 accurately ripped (confidence 3) [3714BC5F]
Track 15 accurately ripped (confidence 3) [31455D35]
Track 16 accurately ripped (confidence 3) [E125445C]

All tracks accurately ripped

End of status report

AUDIOCHECKER v2.0 beta (build 457) - by Dester - opdester@freemail.hu
~~~~~~~~~~~~~~~~~~~~~~~~~~~~~~~~~~
-=== DO NOT EDIT THIS FILE! ===-

Path: …\1968 - . Aerial Ballet (Japanese issue)

01 -=- Harry Nilsson - Aerial Ballet (BVCM-35114).flac -=- CDDA (99%)

42096660

[Verification date: 18.06.2011 1:49:49]
[Disc ID: 00155a8f-00ff9bea-d0089a10]
Track [ CRC ] Status
01 [8e5b0832] (04/04) Accurately ripped as in pressing(s) #1
02 [4d3594da] (04/04) Accurately ripped as in pressing(s) #1
03 [8ed2b6bc] (04/04) Accurately ripped as in pressing(s) #1
04 [79b96718] (04/04) Accurately ripped as in pressing(s) #1
05 [31942024] (04/04) Accurately ripped as in pressing(s) #1
06 [741a441e] (04/04) Accurately ripped as in pressing(s) #1
07 [be7d3664] (04/04) Accurately ripped as in pressing(s) #1
08 [cb723e86] (04/04) Accurately ripped as in pressing(s) #1
09 [b54cb42d] (04/04) Accurately ripped as in pressing(s) #1
10 [7e88587b] (04/04) Accurately ripped as in pressing(s) #1
11 [2d35bef8] (04/04) Accurately ripped as in pressing(s) #1
12 [9f7be22c] (04/04) Accurately ripped as in pressing(s) #1
13 [95f30f3f] (04/04) Accurately ripped as in pressing(s) #1
14 [3714bc5f] (04/04) Accurately ripped as in pressing(s) #1
15 [31455d35] (04/04) Accurately ripped as in pressing(s) #1
16 [e125445c] (04/04) Accurately ripped as in pressing(s) #1

Track [ CRC32 ] [W/O NULL] [ LOG ]
– [1A4E4640] [2FA284B5] CRC32
01 [19D2FCF9] [EAA37BFF]
02 [709A2454] [5E603634]
03 [1E556709] [9D29C526]
04 [8844B04E] [F895202B]
05 [3F35852F] [3DFFC97B]
06 [19A5C9C5] [8D5F6E60]
07 [35B5F30E] [6143D18B]
08 [A2DAA6A6] [52EE717C]
09 [999B4FB3] [A54DDC36]
10 [68587DEF] [FA6E3AA5]
11 [38351E99] [FC5D4179]
12 [64EFFD47] [E1291DCA]
13 [F73E4556] [B1C6611B]
14 [F49B7551] [83780AD8]
15 [509994D3] [D7F97879]
16 [E8F6EE9F] [68635A9B]

––––––––––––––––––––––––––––––-

Harry Nilsson (1967 - 1977) [11CDs, Japanese Press] Re-up

CD03: Harry Nilsson - Harry (1969)
Pop Rock / Vocal | EAC Rip | Flac(Image) + Cue + Log and MP3 CBR 320Kbps
Scans Included | 2007, BMG Japan, BVCM-35116 | ~ 282 or 130 Mb

Ironically, Harry is where Harry Nilsson began to become Nilsson, an immensely gifted singer/songwriter/musician with a warped sense of humor that tended to slightly overwhelm his skills, at least to those who aren't quite operating on the same level. This aspect of his personality surfaces partially because the record is a crazy quilt of originals, covers, bizarre Americana, quiet ballads, show tunes, and soft-shoe shuffles. It doesn't really hold together, per se, due to its lack of focus (which, if you're a cultist, is naturally the reason why it's charming). Due to the sheer number of shuffling nostalgia trips, it seems as if Nilsson is attempting to sell the entire album on personality and, to anyone who isn't converted to his unique perspective, these may the moments that make Harry a little difficult to take, even with songs as expertly constructed as the delightful "Nobody Cares About the Railroads Anymore," an attempt to ape Randy Newman's Tin Pan Alley style. Then, there are the songs that really work, such as the sardonically cute "The Puppy Song," the gentle "Mournin' Glory Story," and "I Guess the Lord Must Be in New York City," a thoroughly winning folk-rock song he wrote for Midnight Cowboy but which was rejected in favor of "Everybody's Talkin'." These are the moments that deliver on the promise of his first two records, while the rest suggests where he would go next, whether in the immediate future (a cover of Newman's "Simon Smith and the Amazing Dancing Bear") or several years later (the weird in-jokes and insularity of portions of the album, which would become his modus operandi as of Nilsson Schmilsson).

by Stephen Thomas Erlewine, AMG
Harry Nilsson (1967 - 1977) [11CDs, Japanese Press] Re-up

Tracklist:

1. The Puppy Song (2:44)
2. Nobody Cares About The Railroads Anyone (2:46)
3. Open Your Window (2:09)
4. Mother Nature's Son (2:45)
5. Fairfax Rar (2:16)
6. City Life (2:33)
7. Mornin' Glory Story (2:16)
8. Maybe (3:10)
9. Marchin' Down Broadway (1:06)
10. I Guess The Lord Must Be In New York City (2:45)
11. Rainmaker (2:50)
12. Mr.Bojangles (3:58)
13. Simon Smith And The Amazing Dancing Bear (2:52)
14. Waiting (2:22)
15. Rainmaker (mono single version) (2:26)
16. Wasting My Time (3:33)

Exact Audio Copy V0.99 prebeta 3 from 28. July 2007

EAC extraction logfile from 11. August 2010, 10:13

Nilsson, Harry / Harry

Used drive : _NEC DVD_RW ND-2510A Adapter: 1 ID: 0

Read mode : Secure
Utilize accurate stream : Yes
Defeat audio cache : Yes
Make use of C2 pointers : No

Read offset correction : 48
Overread into Lead-In and Lead-Out : No
Fill up missing offset samples with silence : Yes
Delete leading and trailing silent blocks : No
Null samples used in CRC calculations : Yes
Used interface : Native Win32 interface for Win NT & 2000

Used output format : User Defined Encoder
Selected bitrate : 1024 kBit/s
Quality : High
Add ID3 tag : No
Command line compressor : C:\Program Files\Exact Audio Copy\Flac\flac.exe
Additional command line options : -8 -V %s


TOC of the extracted CD

Track | Start | Length | Start sector | End sector
––––––––––––––––––––––––––––-
1 | 0:00.00 | 2:44.18 | 0 | 12317
2 | 2:44.18 | 2:46.70 | 12318 | 24837
3 | 5:31.13 | 2:09.04 | 24838 | 34516
4 | 7:40.17 | 2:45.44 | 34517 | 46935
5 | 10:25.61 | 2:16.58 | 46936 | 57193
6 | 12:42.44 | 2:33.08 | 57194 | 68676
7 | 15:15.52 | 2:16.15 | 68677 | 78891
8 | 17:31.67 | 3:10.47 | 78892 | 93188
9 | 20:42.39 | 1:06.71 | 93189 | 98209
10 | 21:49.35 | 2:45.41 | 98210 | 110625
11 | 24:35.01 | 2:50.02 | 110626 | 123377
12 | 27:25.03 | 3:58.38 | 123378 | 141265
13 | 31:23.41 | 2:52.00 | 141266 | 154165
14 | 34:15.41 | 2:22.59 | 154166 | 164874
15 | 36:38.25 | 2:26.54 | 164875 | 175878
16 | 39:05.04 | 3:33.54 | 175879 | 191907


Range status and errors

Selected range

Filename I:\Раздача музыки\Nilsson, Harry\5. Harry (Japanese issue) (1969)\Nilsson, Harry - Harry.wav

Peak level 100.0 %
Range quality 100.0 %
Test CRC C3C32A0C
Copy CRC C3C32A0C
Copy OK

No errors occurred


AccurateRip summary

Track 1 accurately ripped (confidence 2) [2A86C80D]
Track 2 accurately ripped (confidence 2) [F469A75F]
Track 3 accurately ripped (confidence 2) [A3AAF5A5]
Track 4 accurately ripped (confidence 2) [5C5E56AA]
Track 5 accurately ripped (confidence 2) [B18CCCDE]
Track 6 accurately ripped (confidence 2) [D064A3CB]
Track 7 accurately ripped (confidence 2) [3D0F2A26]
Track 8 accurately ripped (confidence 2) [56E8F6D3]
Track 9 accurately ripped (confidence 2) [F3C3D58D]
Track 10 accurately ripped (confidence 2) [B0DAC884]
Track 11 accurately ripped (confidence 2) [D6823D21]
Track 12 accurately ripped (confidence 2) [B9084D73]
Track 13 accurately ripped (confidence 2) [703E7875]
Track 14 accurately ripped (confidence 2) [E2242473]
Track 15 accurately ripped (confidence 2) [15A363A1]
Track 16 accurately ripped (confidence 2) [609896BD]

All tracks accurately ripped

End of status report

AUDIOCHECKER v2.0 beta (build 457) - by Dester - opdester@freemail.hu
~~~~~~~~~~~~~~~~~~~~~~~~~~~~~~~~~~
-=== DO NOT EDIT THIS FILE! ===-

Path: …\1969 - Harry (Japanese issue)

01 -=- Nilsson, Harry - Harry.flac -=- CDDA (100%)

32232676

[Verification date: 18.06.2011 1:50:28]
[Disc ID: 00180fa5-0121c200-cc09fe10]
Track [ CRC ] Status
01 [2a86c80d] (02/08) Accurately ripped as in pressing(s) #2
02 [f469a75f] (02/08) Accurately ripped as in pressing(s) #2
03 [a3aaf5a5] (02/08) Accurately ripped as in pressing(s) #2
04 [5c5e56aa] (02/08) Accurately ripped as in pressing(s) #2
05 [b18cccde] (02/08) Accurately ripped as in pressing(s) #2
06 [d064a3cb] (02/08) Accurately ripped as in pressing(s) #2
07 [3d0f2a26] (02/08) Accurately ripped as in pressing(s) #2
08 [56e8f6d3] (02/08) Accurately ripped as in pressing(s) #2
09 [f3c3d58d] (02/08) Accurately ripped as in pressing(s) #2
10 [b0dac884] (02/08) Accurately ripped as in pressing(s) #2
11 [d6823d21] (02/08) Accurately ripped as in pressing(s) #2
12 [b9084d73] (02/08) Accurately ripped as in pressing(s) #2
13 [703e7875] (02/08) Accurately ripped as in pressing(s) #2
14 [e2242473] (02/08) Accurately ripped as in pressing(s) #2
15 [15a363a1] (02/08) Accurately ripped as in pressing(s) #2
16 [609896bd] (02/08) Accurately ripped as in pressing(s) #2
Offsetted by 18:
01 [bf18bf9b] (04/08) Accurately ripped as in pressing(s) #1
02 [3b30a78d] (04/08) Accurately ripped as in pressing(s) #1
03 [aa00c323] (04/08) Accurately ripped as in pressing(s) #1
04 [3a295c74] (04/08) Accurately ripped as in pressing(s) #1
05 [4e95854e] (04/08) Accurately ripped as in pressing(s) #1
06 [a211bcf5] (04/08) Accurately ripped as in pressing(s) #1
07 [8308bf8c] (04/08) Accurately ripped as in pressing(s) #1
08 [357a44cf] (04/08) Accurately ripped as in pressing(s) #1
09 [b035ff55] (04/08) Accurately ripped as in pressing(s) #1
10 [5d0e720e] (04/08) Accurately ripped as in pressing(s) #1
11 [4d584a1f] (04/08) Accurately ripped as in pressing(s) #1
12 [f730ae25] (04/08) Accurately ripped as in pressing(s) #1
13 [4ae1a1a3] (04/08) Accurately ripped as in pressing(s) #1
14 [4212249b] (04/08) Accurately ripped as in pressing(s) #1
15 [260d1fb1] (04/08) Accurately ripped as in pressing(s) #1
16 [d4856c9b] (04/08) Accurately ripped as in pressing(s) #1

Track [ CRC32 ] [W/O NULL] [ LOG ]
– [C3C32A0C] [434545A2] CRC32
01 [1A4CDE71] [E3607B9C]
02 [F383AD7E] [1DCC8B52]
03 [58BAD918] [AB465750]
04 [6E65922B] [4F2C7F22]
05 [884793E5] [A9468E79]
06 [91FAA0F0] [AC24841D]
07 [3B3E3DCD] [11CA350A]
08 [25D02192] [1B3D8D66]
09 [6693C8BF] [9529C753]
10 [72C8C429] [AADFE964]
11 [D2AA159B] [C0AE26B0]
12 [12179A9E] [8554D89A]
13 [65F5B8DE] [ADF25F20]
14 [2822FB05] [BCA453AE]
15 [02F7E337] [3C38E2D3]
16 [DE50B74B] [72B1923A]

––––––––––––––––––––––––––––––-

Harry Nilsson (1967 - 1977) [11CDs, Japanese Press] Re-up

CD04: Harry Nilsson - The Point! (1971)
Pop Rock / Vocal | EAC Rip | Flac(Image) + Cue + Log and MP3 CBR 320Kbps
Scans | 2007, BMG Japan, BVCM-35118 | ~ 337 or 175 Mb

The Point! is the soundtrack to a cartoon feature originally aired on ABC TV in 1971. Especially at this stage of his career, Harry Nilsson was uniquely suited for writing and recording children's music, given his sweet melodicism and love of whimsy. As it happens, The Point! worked out better than anyone could have expected, not just because "Everything's Got 'Em," "Me and My Arrow," "Think About Your Troubles," and "Are You Sleeping?" are songs strong enough to have been on a proper Nilsson record. There's also an intangible quality to this record, a warmth and generosity that really wasn't on any of his other albums, quite possibly because his humor is never sardonic or reliant on in-jokes. It's gentle and loving, as is the music. The tale is fantastical enough to be of interest to children (and the moral is strong enough to reassure them and their parents), but the songs and music are so strong that the album continues to be a source of wonder, even as those children become adults.

by Stephen Thomas Erlewine, AMG
Harry Nilsson (1967 - 1977) [11CDs, Japanese Press] Re-up

Tracklist:

1.Everything's Got 'Em
2.The Town
3.Me And My Arrow
4.The Game
5.Poli High
6.The Trial & Banishment
7.Think About Your Troubles
8.The Pointed Man
9.Life Line
10.The Birds
11.P.O.V. Waltz
12.The Clearing In The Woods
13.Are You Sleeping
14.Oblio's Narration
15.Down To The Valley
16.Buy My Album
17.Think About Your Troubles (Take 4)
18.Life Line (Take 4)
19.Down To The Valley (Alternative Version)

Exact Audio Copy V0.99 prebeta 3 from 28. July 2007

EAC extraction logfile from 7. August 2010, 12:09

Harry Nilsson / The Point! (BVCM-35118)

Used drive : _NEC DVD_RW ND-2510A Adapter: 1 ID: 0

Read mode : Secure
Utilize accurate stream : Yes
Defeat audio cache : Yes
Make use of C2 pointers : No

Read offset correction : 48
Overread into Lead-In and Lead-Out : No
Fill up missing offset samples with silence : Yes
Delete leading and trailing silent blocks : No
Null samples used in CRC calculations : Yes
Used interface : Native Win32 interface for Win NT & 2000

Used output format : User Defined Encoder
Selected bitrate : 1024 kBit/s
Quality : High
Add ID3 tag : No
Command line compressor : C:\Program Files\Exact Audio Copy\Flac\flac.exe
Additional command line options : -8 -V %s


TOC of the extracted CD

Track | Start | Length | Start sector | End sector
––––––––––––––––––––––––––––-
1 | 0:00.00 | 2:27.00 | 0 | 11024
2 | 2:27.00 | 1:30.60 | 11025 | 17834
3 | 3:57.60 | 2:05.29 | 17835 | 27238
4 | 6:03.14 | 1:49.42 | 27239 | 35455
5 | 7:52.56 | 2:41.24 | 35456 | 47554
6 | 10:34.05 | 2:12.22 | 47555 | 57476
7 | 12:46.27 | 2:50.13 | 57477 | 70239
8 | 15:36.40 | 2:43.31 | 70240 | 82495
9 | 18:19.71 | 2:21.21 | 82496 | 93091
10 | 20:41.17 | 1:58.29 | 93092 | 101970
11 | 22:39.46 | 2:12.14 | 101971 | 111884
12 | 24:51.60 | 1:54.19 | 111885 | 120453
13 | 26:46.04 | 2:18.16 | 120454 | 130819
14 | 29:04.20 | 3:14.29 | 130820 | 145398
15 | 32:18.49 | 2:12.03 | 145399 | 155301
16 | 34:30.52 | 1:31.39 | 155302 | 162165
17 | 36:02.16 | 2:35.40 | 162166 | 173830
18 | 38:37.56 | 2:31.34 | 173831 | 185189
19 | 41:09.15 | 4:54.55 | 185190 | 207294


Range status and errors

Selected range

Filename I:\Раздача музыки\Nilsson, Harry\The Point! (Japanese issue) (1971)\Harry Nilsson - The Point! (BVCM-35118).wav

Peak level 100.0 %
Range quality 100.0 %
Test CRC 469E7939
Copy CRC 469E7939
Copy OK

No errors occurred


AccurateRip summary

Track 1 accurately ripped (confidence 1) [FDB3C1D0]
Track 2 accurately ripped (confidence 1) [58B204D6]
Track 3 accurately ripped (confidence 1) [8FD8F0D1]
Track 4 accurately ripped (confidence 1) [7B80E953]
Track 5 accurately ripped (confidence 1) [82DE190E]
Track 6 accurately ripped (confidence 1) [CA2F94E3]
Track 7 accurately ripped (confidence 1) [9923F932]
Track 8 accurately ripped (confidence 1) [AD4BCFDA]
Track 9 accurately ripped (confidence 1) [731404D2]
Track 10 accurately ripped (confidence 1) [C6440C05]
Track 11 accurately ripped (confidence 1) [0CA9384C]
Track 12 accurately ripped (confidence 1) [B9E35FE6]
Track 13 accurately ripped (confidence 1) [1DA18A52]
Track 14 accurately ripped (confidence 1) [0583C7D5]
Track 15 accurately ripped (confidence 1) [772DA7E4]
Track 16 accurately ripped (confidence 1) [39C8FAAA]
Track 17 accurately ripped (confidence 1) [590BD7F8]
Track 18 accurately ripped (confidence 1) [55EB489B]
Track 19 accurately ripped (confidence 1) [C182EFD2]

All tracks accurately ripped

End of status report

AUDIOCHECKER v2.0 beta (build 457) - by Dester - opdester@freemail.hu
~~~~~~~~~~~~~~~~~~~~~~~~~~~~~~~~~~
-=== DO NOT EDIT THIS FILE! ===-

Path: …\1971 - The Point! (Japanese issue)

01 -=- Harry Nilsson - The Point! (BVCM-35118).flac -=- CDDA (100%)

5220916

Verification date: 18.06.2011 1:51:10]
[Disc ID: 001d8d58-01a184fb-010acb13]
Track [ CRC ] Status
01 [fdb3c1d0] (01/01) Accurately ripped as in pressing(s) #1
02 [58b204d6] (01/01) Accurately ripped as in pressing(s) #1
03 [8fd8f0d1] (01/01) Accurately ripped as in pressing(s) #1
04 [7b80e953] (01/01) Accurately ripped as in pressing(s) #1
05 [82de190e] (01/01) Accurately ripped as in pressing(s) #1
06 [ca2f94e3] (01/01) Accurately ripped as in pressing(s) #1
07 [9923f932] (01/01) Accurately ripped as in pressing(s) #1
08 [ad4bcfda] (01/01) Accurately ripped as in pressing(s) #1
09 [731404d2] (01/01) Accurately ripped as in pressing(s) #1
10 [c6440c05] (01/01) Accurately ripped as in pressing(s) #1
11 [0ca9384c] (01/01) Accurately ripped as in pressing(s) #1
12 [b9e35fe6] (01/01) Accurately ripped as in pressing(s) #1
13 [1da18a52] (01/01) Accurately ripped as in pressing(s) #1
14 [0583c7d5] (01/01) Accurately ripped as in pressing(s) #1
15 [772da7e4] (01/01) Accurately ripped as in pressing(s) #1
16 [39c8faaa] (01/01) Accurately ripped as in pressing(s) #1
17 [590bd7f8] (01/01) Accurately ripped as in pressing(s) #1
18 [55eb489b] (01/01) Accurately ripped as in pressing(s) #1
19 [c182efd2] (01/01) Accurately ripped as in pressing(s) #1

Track [ CRC32 ] [W/O NULL] [ LOG ]
– [469E7939] [EA947A3E] CRC32
01 [B4EF3369] [3792E8AC]
02 [BABA0030] [452EBA4A]
03 [BEAC46E8] [B55CB79C]
04 [49A6A63A] [97F51D13]
05 [E0585CE7] [1CDFFA49]
06 [D881751C] [7A0420D6]
07 [AAB087EA] [48068392]
08 [5D970898] [76D94587]
09 [F9E2B01A] [3C4F6D32]
10 [D1526874] [B71876EF]
11 [8FC34024] [4C26E65E]
12 [8F3A306D] [3099968B]
13 [626F4C25] [1ACC0575]
14 [ED06ACD3] [CD136177]
15 [42778342] [944B224A]
16 [6E3F5008] [BBDE29B4]
17 [B9E0F56D] [9A53F3DA]
18 [A2EEE6D9] [BA4A98A9]
19 [93CDD129] [D9C39CBB]

––––––––––––––––––––––––––––––-

Harry Nilsson (1967 - 1977) [11CDs, Japanese Press] Re-up

CD05: Harry Nilsson - Nilsson Schmilsson (1971)
Pop Rock / Vocal | EAC Rip | Flac(Image) + Cue + Log and MP3 CBR 320Kbps
Scans | 2007, BMG Japan, BVCM-35120 | ~ 473 or 202 Mb

Harry Nilsson had a hit, a Grammy, and critical success, yet he still didn't have a genuine blockbuster to his name when it came time to finally deliver a full-fledged follow-up to Nilsson Sings Newman, so he decided it was time to make that unabashed, mainstream pop/rock album. Hiring Barbra Streisand producer Richard Perry as a collaborator, Nilsson made a streamlined, slightly domesticated, unashamed set of mature pop/rock, with a slight twist. This is an album, after all, that begins by pining for the reckless days of youth, then segues into a snapshot of suburban disconnectedness before winding through a salute to and covers of old R&B tunes ("Early in the Morning" and "Let the Good Times Roll," respectively), druggie humor ("Coconut"), and surging hard rock ("Jump Into the Fire"). There are certainly hints of the Nilsson of old, particularly in his fondness for Tin Pan Alley and McCartney melodicism – as well as his impish wit – yet he hadn't made a record as cohesive as this since his first time out, nor had he ever made something as shiny and appealing as this. It may be more accessible than before, yet it's anchored by his mischievous humor and wonderful idiosyncrasies. Chances are that those lured in by the grandly melodramatic "Without You" will not be prepared for either the subtle charms of "The Moonbeam Song" or the off-kilter sensibility that makes even his breeziest pop slightly strange. In short, it's a near-perfect summary of everything Nilsson could do; he could be craftier and stranger, but never did he achieve the perfect balance as he did here.

by Stephen Thomas Erlewine, AMG
Harry Nilsson (1967 - 1977) [11CDs, Japanese Press] Re-up

Tracklist:

1. Gotta Get Up (2:24)
2. Driving Along (2:03)
3. Early in the Morning (2:50)
4. The Moonbeam Song (3:22)
5. Down (3:25)
6. Without You (3:25)
7. Coconut (3:50)
8. Let the Good Times Roll (2:43)
9. Jump into the Fire (6:53)
10. I'll Never Leave You (4:20)
11. Without You (Demo) (3:54)
12. Driving Along (Demo) (0:56)
13. Gotta Get Up (Demo) (1:53)
14. Coconut (Demo) (4:02)
15. Down (Demo) (4:00)
16. Moonbeam Song (Demo) (1:49)
17. Jump into the Fire (Short Version) (3:34)
18. Per Chi (Without You - Italian Version) (3:16)
19. Si No Estas Tu (Without You - Spanish Version) (3:19)
20. How Can I Be Sure of You (Previously Unreleased) (3:06)
21. Moonbeam Song (Previously Unreleased) (3:32)
22. HLamaze (Previously Unreleased) (1:44)
23. Gotta Get Up (Previously Unreleased) - Radio Spot (5:07)

Exact Audio Copy V0.99 prebeta 3 from 28. July 2007

EAC extraction logfile from 24. September 2010, 15:45

Nilsson, Harry / Schmilsson

Used drive : _NEC DVD_RW ND-2510A Adapter: 1 ID: 0

Read mode : Secure
Utilize accurate stream : Yes
Defeat audio cache : Yes
Make use of C2 pointers : No

Read offset correction : 48
Overread into Lead-In and Lead-Out : No
Fill up missing offset samples with silence : Yes
Delete leading and trailing silent blocks : No
Null samples used in CRC calculations : Yes
Used interface : Native Win32 interface for Win NT & 2000

Used output format : User Defined Encoder
Selected bitrate : 1024 kBit/s
Quality : High
Add ID3 tag : No
Command line compressor : C:\Program Files\Exact Audio Copy\Flac\flac.exe
Additional command line options : -8 -V %s


TOC of the extracted CD

Track | Start | Length | Start sector | End sector
––––––––––––––––––––––––––––-
1 | 0:00.00 | 2:24.46 | 0 | 10845
2 | 2:24.46 | 2:03.36 | 10846 | 20106
3 | 4:28.07 | 2:50.40 | 20107 | 32896
4 | 7:18.47 | 3:22.42 | 32897 | 48088
5 | 10:41.14 | 3:25.52 | 48089 | 63515
6 | 14:06.66 | 3:25.01 | 63516 | 78891
7 | 17:31.67 | 3:50.61 | 78892 | 96202
8 | 21:22.53 | 2:43.16 | 96203 | 108443
9 | 24:05.69 | 6:53.45 | 108444 | 139463
10 | 30:59.39 | 4:20.63 | 139464 | 159026
11 | 35:20.27 | 3:54.46 | 159027 | 176622
12 | 39:14.73 | 0:56.28 | 176623 | 180850
13 | 40:11.26 | 1:53.19 | 180851 | 189344
14 | 42:04.45 | 4:02.52 | 189345 | 207546
15 | 46:07.22 | 4:00.54 | 207547 | 225600
16 | 50:08.01 | 1:49.58 | 225601 | 233833
17 | 51:57.59 | 3:34.28 | 233834 | 249911
18 | 55:32.12 | 3:16.56 | 249912 | 264667
19 | 58:48.68 | 3:19.67 | 264668 | 279659
20 | 62:08.60 | 3:06.31 | 279660 | 293640
21 | 65:15.16 | 3:32.03 | 293641 | 309543
22 | 68:47.19 | 1:44.10 | 309544 | 317353
23 | 70:31.29 | 5:07.09 | 317354 | 340387


Range status and errors

Selected range

Filename I:\Раздача музыки\Nilsson, Harry\Nilsson, Harry - razdacha\Nilsson Schmilsson (Japanese issue) (1971)\Nilsson, Harry - Schmilsson.wav

Peak level 100.0 %
Range quality 100.0 %
Test CRC A883EEB2
Copy CRC A883EEB2
Copy OK

No errors occurred


AccurateRip summary

Track 1 accurately ripped (confidence 2) [26D5F016]
Track 2 accurately ripped (confidence 2) [78735349]
Track 3 accurately ripped (confidence 2) [A09D860E]
Track 4 accurately ripped (confidence 2) [CF432B07]
Track 5 accurately ripped (confidence 2) [12D0471D]
Track 6 accurately ripped (confidence 2) [37E95421]
Track 7 accurately ripped (confidence 2) [311CC514]
Track 8 accurately ripped (confidence 2) [678A181D]
Track 9 accurately ripped (confidence 2) [4AB10B37]
Track 10 accurately ripped (confidence 2) [700D3E72]
Track 11 accurately ripped (confidence 2) [FFFEDF7B]
Track 12 accurately ripped (confidence 2) [E803844D]
Track 13 accurately ripped (confidence 2) [09B87BEC]
Track 14 accurately ripped (confidence 2) [420A2A22]
Track 15 accurately ripped (confidence 2) [24B23F62]
Track 16 accurately ripped (confidence 2) [9327BA6C]
Track 17 accurately ripped (confidence 2) [999A9289]
Track 18 accurately ripped (confidence 2) [3049BC8F]
Track 19 accurately ripped (confidence 2) [5DBF2038]
Track 20 accurately ripped (confidence 2) [0BD8EF39]
Track 21 accurately ripped (confidence 2) [2915E29D]
Track 22 accurately ripped (confidence 2) [6FD96359]
Track 23 accurately ripped (confidence 2) [73480F78]

All tracks accurately ripped

End of status report

AUDIOCHECKER v2.0 beta (build 457) - by Dester - opdester@freemail.hu
~~~~~~~~~~~~~~~~~~~~~~~~~~~~~~~~~~
-=== DO NOT EDIT THIS FILE! ===-

Path: …\1971 - . Nilsson Schmilsson (Japanese issue)

01 -=- Nilsson, Harry - Schmilsson.flac -=- MPEG (95%)

65514164

[Verification date: 18.06.2011 1:52:03]
[Disc ID: 003d7055-04086ebf-2711ba17]
Track [ CRC ] Status
01 [26d5f016] (03/03) Accurately ripped as in pressing(s) #1
02 [78735349] (03/03) Accurately ripped as in pressing(s) #1
03 [a09d860e] (03/03) Accurately ripped as in pressing(s) #1
04 [cf432b07] (03/03) Accurately ripped as in pressing(s) #1
05 [12d0471d] (03/03) Accurately ripped as in pressing(s) #1
06 [37e95421] (03/03) Accurately ripped as in pressing(s) #1
07 [311cc514] (03/03) Accurately ripped as in pressing(s) #1
08 [678a181d] (03/03) Accurately ripped as in pressing(s) #1
09 [4ab10b37] (03/03) Accurately ripped as in pressing(s) #1
10 [700d3e72] (03/03) Accurately ripped as in pressing(s) #1
11 [fffedf7b] (03/03) Accurately ripped as in pressing(s) #1
12 [e803844d] (03/03) Accurately ripped as in pressing(s) #1
13 [09b87bec] (03/03) Accurately ripped as in pressing(s) #1
14 [420a2a22] (03/03) Accurately ripped as in pressing(s) #1
15 [24b23f62] (03/03) Accurately ripped as in pressing(s) #1
16 [9327ba6c] (03/03) Accurately ripped as in pressing(s) #1
17 [999a9289] (03/03) Accurately ripped as in pressing(s) #1
18 [3049bc8f] (03/03) Accurately ripped as in pressing(s) #1
19 [5dbf2038] (03/03) Accurately ripped as in pressing(s) #1
20 [0bd8ef39] (03/03) Accurately ripped as in pressing(s) #1
21 [2915e29d] (03/03) Accurately ripped as in pressing(s) #1
22 [6fd96359] (03/03) Accurately ripped as in pressing(s) #1
23 [73480f78] (03/03) Accurately ripped as in pressing(s) #1

Track [ CRC32 ] [W/O NULL] [ LOG ]
– [A883EEB2] [1A1B87DB] CRC32
01 [89CD59CB] [C4CA8D73]
02 [C9C86135] [93535496]
03 [321FC7DC] [090467AC]
04 [CA4F7DDC] [B4663E74]
05 [3A851CC2] [81C336A6]
06 [A3FABB2B] [6C9B12FE]
07 [E870864D] [8ED5F5D4]
08 [814D0DE4] [25C23561]
09 [46808D1D] [F219B59B]
10 [275BD895] [B7E97E88]
11 [2DD1B9CB] [44245600]
12 [39070EDD] [2DB6F271]
13 [A8A54FFD] [AD66201E]
14 [83784D1B] [B5695C9C]
15 [FDF4F6A7] [8EC198A4]
16 [1A46634F] [7B20FB75]
17 [B888D5AA] [3CE131F3]
18 [5FEA55BA] [883D7F59]
19 [BA72861A] [58ACBEC4]
20 [3241E236] [9ADD6A75]
21 [C90617DD] [025980D8]
22 [E390AED6] [3A34A4C6]
23 [0FAEFEC2] [519514DD]

AuSpec:
Harry Nilsson (1967 - 1977) [11CDs, Japanese Press] Re-up

Horizontal thick line = 5 khz; thin line = 1 Khz

––––––––––––––––––––––––––––––-

Harry Nilsson (1967 - 1977) [11CDs, Japanese Press] Re-up

CD06: Harry Nilsson - Son Of Schmilsson (1972)
Pop Rock / Vocal | EAC Rip | Flac(Image) + Cue + Log and MP3 CBR 320Kbps
Scans | 2007, BMG Japan, BVCM-35121 | ~ 415 or 180 Mb

Emboldened by a huge hit and hanging with Lennon and Ringo, Harry Nilsson was ready to let it all go when it came time to record a follow-up to Nilsson Schmilsson. The very title of Son of Schmilsson implies that it's a de facto sequel to its smash predecessor but, as always with Nilsson, don't take everything at face value. Yes, he's back with producer Richard Perry and he's working from the same gleefully melodic, polished pop/rock territory as before, but this is an incredibly schizoid record, an album by an enormously gifted musician deciding that, since he's already going unhinged, he might as well indulge himself while he's at it. And, wow, are the results ever worth it. Opening with a song to a groupie – he sang his balls off, baby, he nearly broke the microphone – and ending with an ode to "The Most Beautiful World in the World," this record careens all over the place, bouncing from one idea to another, punctuated with B-horror movie sound effects, bizarre humor, profanity, and belches. There are song parodies, seemingly straight piano ballads, vulgar hard rock, lovely love songs, and a cheerful singalong with retirees at an old folks home who all proclaim, "I'd rather be dead than wet my bed." The sheer perversity of it all would be fascinating, yet if that's all it had to offer, it'd merely be a curiosity, the way his post-Pussy Cats records are. Instead, this is all married to a fantastic set of songs that illustrate what a skilled, versatile songsmith Nilsson was. No, it may not be the easiest album to warm to – and it's just about the weirdest record to reach number 12 and go gold – but if you appreciate Nilsson's musicality and weirdo humor, he never got any better.

by Stephen Thomas Erlewine, AMG
Harry Nilsson (1967 - 1977) [11CDs, Japanese Press] Re-up

Tracklist:

1. Take 54 (4:18)
2. Remember (Christmas) (4:06)
3. Joy (3:42)
4. Turn On Your Radio (2:39)
5. You`re Breakin` My Heart (3:08)
6. Spaceman (3:34)
7. The Lottery Song (2:25)
8. At My Front Door (2:59)
9. Ambush (5:21)
10. I`d Rather Be Dead (3:20)
11. The Most Beautiful World In The World (3:38)
12. Joy (DEMO-Guitar) (1:56)
13. Joy (DEMO-Piano) (0:57)
14. What`s Your Sign? (Unreleased) (3:05)
15. Take 54 (Alt. Take) (3:39)
16. Campo De Enchino (Unreleased) (4:54)
17. Daybreak (Single) ~ It Had To Be You (Jam) (5:50)

Exact Audio Copy V0.99 prebeta 3 from 28. July 2007

EAC extraction logfile from 24. September 2010, 21:19

Harry Nilsson / Son Of Schmilsson (Japanese issue)

Used drive : _NEC DVD_RW ND-2510A Adapter: 1 ID: 0

Read mode : Secure
Utilize accurate stream : Yes
Defeat audio cache : Yes
Make use of C2 pointers : No

Read offset correction : 48
Overread into Lead-In and Lead-Out : No
Fill up missing offset samples with silence : Yes
Delete leading and trailing silent blocks : No
Null samples used in CRC calculations : Yes
Used interface : Native Win32 interface for Win NT & 2000

Used output format : User Defined Encoder
Selected bitrate : 1024 kBit/s
Quality : High
Add ID3 tag : No
Command line compressor : C:\Program Files\Exact Audio Copy\Flac\flac.exe
Additional command line options : -8 -V %s


TOC of the extracted CD

Track | Start | Length | Start sector | End sector
––––––––––––––––––––––––––––-
1 | 0:00.00 | 4:18.65 | 0 | 19414
2 | 4:18.65 | 4:06.13 | 19415 | 37877
3 | 8:25.03 | 3:42.30 | 37878 | 54557
4 | 12:07.33 | 2:39.13 | 54558 | 66495
5 | 14:46.46 | 3:08.12 | 66496 | 80607
6 | 17:54.58 | 3:34.01 | 80608 | 96658
7 | 21:28.59 | 2:25.63 | 96659 | 107596
8 | 23:54.47 | 2:59.74 | 107597 | 121095
9 | 26:54.46 | 5:21.38 | 121096 | 145208
10 | 32:16.09 | 3:20.18 | 145209 | 160226
11 | 35:36.27 | 3:38.09 | 160227 | 176585
12 | 39:14.36 | 1:56.27 | 176586 | 185312
13 | 41:10.63 | 0:57.25 | 185313 | 189612
14 | 42:08.13 | 3:05.03 | 189613 | 203490
15 | 45:13.16 | 3:39.17 | 203491 | 219932
16 | 48:52.33 | 4:54.74 | 219933 | 242056
17 | 53:47.32 | 5:50.53 | 242057 | 268359


Range status and errors

Selected range

Filename I:\Раздача музыки\Nilsson, Harry\Nilsson, Harry - razdacha\Son Of Schmilsson (Japanese issue) (1972)\Harry Nilsson - Son Of Schmilsson (Japanese issue).wav

Peak level 100.0 %
Range quality 99.9 %
Test CRC 02221173
Copy CRC 02221173
Copy OK

No errors occurred


AccurateRip summary

Track 1 accurately ripped (confidence 2) [822594D0]
Track 2 accurately ripped (confidence 2) [A7E900B2]
Track 3 accurately ripped (confidence 2) [3DF0D76B]
Track 4 accurately ripped (confidence 2) [19052C20]
Track 5 accurately ripped (confidence 2) [6D4048CE]
Track 6 accurately ripped (confidence 2) [338C7154]
Track 7 accurately ripped (confidence 2) [52D839DF]
Track 8 accurately ripped (confidence 2) [3F08F7F7]
Track 9 accurately ripped (confidence 2) [3EEA8C9E]
Track 10 accurately ripped (confidence 2) [DBA815BA]
Track 11 accurately ripped (confidence 2) [066C31E0]
Track 12 accurately ripped (confidence 2) [F9704DB7]
Track 13 accurately ripped (confidence 2) [AB17C86C]
Track 14 accurately ripped (confidence 2) [675B906E]
Track 15 accurately ripped (confidence 2) [0522EB3E]
Track 16 accurately ripped (confidence 2) [9C9A19B2]
Track 17 accurately ripped (confidence 2) [7231871C]

All tracks accurately ripped

End of status report

AUDIOCHECKER v2.0 beta (build 457) - by Dester - opdester@freemail.hu
~~~~~~~~~~~~~~~~~~~~~~~~~~~~~~~~~~
-=== DO NOT EDIT THIS FILE! ===-

Path: …\1972 - Son Of Schmilsson (Japanese issue)

01 -=- Harry Nilsson - Son Of Schmilsson (Japanese issue).flac -=- CDDA (100%)

140249012

[Verification date: 18.06.2011 1:52:50]
[Disc ID: 00243db8-01c59d5a-f30dfa11]
Track [ CRC ] Status
01 [822594d0] (02/02) Accurately ripped as in pressing(s) #1
02 [a7e900b2] (02/02) Accurately ripped as in pressing(s) #1
03 [3df0d76b] (02/02) Accurately ripped as in pressing(s) #1
04 [19052c20] (02/02) Accurately ripped as in pressing(s) #1
05 [6d4048ce] (02/02) Accurately ripped as in pressing(s) #1
06 [338c7154] (02/02) Accurately ripped as in pressing(s) #1
07 [52d839df] (02/02) Accurately ripped as in pressing(s) #1
08 [3f08f7f7] (02/02) Accurately ripped as in pressing(s) #1
09 [3eea8c9e] (02/02) Accurately ripped as in pressing(s) #1
10 [dba815ba] (02/02) Accurately ripped as in pressing(s) #1
11 [066c31e0] (02/02) Accurately ripped as in pressing(s) #1
12 [f9704db7] (02/02) Accurately ripped as in pressing(s) #1
13 [ab17c86c] (02/02) Accurately ripped as in pressing(s) #1
14 [675b906e] (02/02) Accurately ripped as in pressing(s) #1
15 [0522eb3e] (02/02) Accurately ripped as in pressing(s) #1
16 [9c9a19b2] (02/02) Accurately ripped as in pressing(s) #1
17 [7231871c] (02/02) Accurately ripped as in pressing(s) #1

Track [ CRC32 ] [W/O NULL] [ LOG ]
– [02221173] [7784F332] CRC32
01 [89714431] [923AD648]
02 [15A1508C] [6AADDB47]
03 [537DB8F1] [2F21CDFF]
04 [1015392C] [EC5A2BC1]
05 [6B985B5C] [743F726C]
06 [C3B3D8B7] [91B5208B]
07 [E2F45ABB] [C817E535]
08 [266C9455] [05DDC030]
09 [432F02A7] [02F0CABA]
10 [A24BA8BE] [FB99D05C]
11 [F223937D] [B244C922]
12 [0E8AABAB] [BF4D5911]
13 [14819D8E] [CE865228]
14 [80E06205] [C58205CA]
15 [A4C41AFB] [E01CD33D]
16 [8662497A] [0EB3E936]
17 [3D00394E] [3D21C73A]

––––––––––––––––––––––––––––––-

Harry Nilsson (1967 - 1977) [11CDs, Japanese Press] Re-up

CD07: Harry Nilsson - A Little Touch of Schmilsson in the Night (1973)
Pop Rock / Vocal | EAC Rip | Flac(Image) + Cue + Log and MP3 CBR 320Kbps
Scans | 2002, BMG Japan, BVCM-35122 | ~ 424 or 185 Mb

Nilsson was nearly a decade ahead of Linda Ronstadt and other nouveau crooners in hiring a conductor/arranger of the pre-rock era (in this case Gordon Jenkins) and recording an album of standards before a full orchestra. And he did it better than most, proving to be a marvelous interpreter of songs like "What'll I Do?" and "Makin' Whoopee!" His version of "As Time Goes By" became a minor hit.

by William Ruhlmann, AMG
Harry Nilsson (1967 - 1977) [11CDs, Japanese Press] Re-up

Tracklist:

1. Lazy Moon (3:22)
2. For Me And My Gal (2:48)
3. It Had To Be You (2:30)
4. Always (1:48)
5. Makin' Whoopee! (4:29)
6. You Made Me Love You (I Didn't Want To Do It) (2:33)
7. Lullaby In Ragtime (3:41)
8. I Wonder Who's Kissing Her Now (2:39)
9. What'll I Do (2:27)
10. Nevertheless (2:39)
11. This Is All I Ask (3:36)
12. As Time Goes By (3:27)
13. I'm Always Chasing Rainbows [bonus track] (3:32)
14. Make Believe [bonus track] (2:23)
15. You Made Me Love You (I Didn't Want To Do It) [bonus track - alternate version] (2:29)
16. Trust In Me [bonus track] (2:28)
17. Lullaby In Ragtime [bonus track - alternate version] (3:47)
18. Always [bonus track - alternate version] (1:46)
19. It's Only A Paper Moon [bonus track] (3:14)
20. It Had To Be You [bonus track - alternate version] (2:39)
21. Thanks For The Memory [bonus track] (2:46)
22. Over The Rainbow [bonus track] (3:46)

Exact Audio Copy V0.99 prebeta 3 from 28. July 2007

EAC extraction logfile from 24. September 2010, 19:03

Harry Nilsson / A Little Touch of Schmilsson in the Night

Used drive : _NEC DVD_RW ND-2510A Adapter: 1 ID: 0

Read mode : Secure
Utilize accurate stream : Yes
Defeat audio cache : Yes
Make use of C2 pointers : No

Read offset correction : 48
Overread into Lead-In and Lead-Out : No
Fill up missing offset samples with silence : Yes
Delete leading and trailing silent blocks : No
Null samples used in CRC calculations : Yes
Used interface : Native Win32 interface for Win NT & 2000

Used output format : User Defined Encoder
Selected bitrate : 1024 kBit/s
Quality : High
Add ID3 tag : No
Command line compressor : C:\Program Files\Exact Audio Copy\Flac\flac.exe
Additional command line options : -8 -V %s


TOC of the extracted CD

Track | Start | Length | Start sector | End sector
––––––––––––––––––––––––––––-
1 | 0:00.00 | 3:22.38 | 0 | 15187
2 | 3:22.38 | 2:48.15 | 15188 | 27802
3 | 6:10.53 | 2:30.64 | 27803 | 39116
4 | 8:41.42 | 1:48.74 | 39117 | 47290
5 | 10:30.41 | 4:29.70 | 47291 | 67535
6 | 15:00.36 | 2:33.03 | 67536 | 79013
7 | 17:33.39 | 3:41.36 | 79014 | 95624
8 | 21:15.00 | 2:39.04 | 95625 | 107553
9 | 23:54.04 | 2:27.04 | 107554 | 118582
10 | 26:21.08 | 2:39.56 | 118583 | 130563
11 | 29:00.64 | 3:36.49 | 130564 | 146812
12 | 32:37.38 | 3:27.12 | 146813 | 162349
13 | 36:04.50 | 3:32.49 | 162350 | 178298
14 | 39:37.24 | 2:23.25 | 178299 | 189048
15 | 42:00.49 | 2:29.01 | 189049 | 200224
16 | 44:29.50 | 2:28.21 | 200225 | 211345
17 | 46:57.71 | 3:47.54 | 211346 | 228424
18 | 50:45.50 | 1:46.42 | 228425 | 236416
19 | 52:32.17 | 3:14.23 | 236417 | 250989
20 | 55:46.40 | 2:39.37 | 250990 | 262951
21 | 58:26.02 | 2:46.58 | 262952 | 275459
22 | 61:12.60 | 3:46.63 | 275460 | 292472


Range status and errors

Selected range

Filename I:\Раздача музыки\Nilsson, Harry\Nilsson, Harry - razdacha\A Little Touch of Schmilsson in the Night (Japanese issue) (1973)\Harry Nilsson - A Little Touch of Schmilsson in the Night.wav

Peak level 100.0 %
Range quality 100.0 %
Test CRC 503BADDC
Copy CRC 503BADDC
Copy OK

No errors occurred


AccurateRip summary

Track 1 not present in database
Track 2 not present in database
Track 3 not present in database
Track 4 not present in database
Track 5 not present in database
Track 6 not present in database
Track 7 not present in database
Track 8 not present in database
Track 9 not present in database
Track 10 not present in database
Track 11 not present in database
Track 12 not present in database
Track 13 not present in database
Track 14 not present in database
Track 15 not present in database
Track 16 not present in database
Track 17 not present in database
Track 18 not present in database
Track 19 not present in database
Track 20 not present in database
Track 21 not present in database
Track 22 not present in database

None of the tracks are present in the AccurateRip database

End of status report

AUDIOCHECKER v2.0 beta (build 457) - by Dester - opdester@freemail.hu
~~~~~~~~~~~~~~~~~~~~~~~~~~~~~~~~~~
-=== DO NOT EDIT THIS FILE! ===-

Path: …\1973 - A Little Touch of Schmilsson in the Night (Japanese issue)

01 -=- Harry Nilsson - A Little Touch of Schmilsson in the Night.flac -=- CDDA (100%)

49417060

Verification date: 18.06.2011 1:53:32]
[Disc ID: 00335102-0334351c-3a0f3b16]
Track [ CRC ] Status
01 [aae85052] (02/02) Accurately ripped as in pressing(s) #1
02 [11de16a1] (02/02) Accurately ripped as in pressing(s) #1
03 [0579066a] (02/02) Accurately ripped as in pressing(s) #1
04 [e9ad1cb9] (02/02) Accurately ripped as in pressing(s) #1
05 [0f22f2b8] (02/02) Accurately ripped as in pressing(s) #1
06 [d089a6da] (02/02) Accurately ripped as in pressing(s) #1
07 [59fcdc05] (02/02) Accurately ripped as in pressing(s) #1
08 [026e0f7a] (02/02) Accurately ripped as in pressing(s) #1
09 [9a60d7fd] (02/02) Accurately ripped as in pressing(s) #1
10 [5ee84c94] (02/02) Accurately ripped as in pressing(s) #1
11 [964463b1] (02/02) Accurately ripped as in pressing(s) #1
12 [e5070377] (02/02) Accurately ripped as in pressing(s) #1
13 [7aead2d9] (02/02) Accurately ripped as in pressing(s) #1
14 [6eeb0878] (02/02) Accurately ripped as in pressing(s) #1
15 [341cd056] (02/02) Accurately ripped as in pressing(s) #1
16 [e3d2db4d] (02/02) Accurately ripped as in pressing(s) #1
17 [e2b4e272] (02/02) Accurately ripped as in pressing(s) #1
18 [48546c40] (02/02) Accurately ripped as in pressing(s) #1
19 [0ec81331] (02/02) Accurately ripped as in pressing(s) #1
20 [dd3559fc] (02/02) Accurately ripped as in pressing(s) #1
21 [2b8fba77] (02/02) Accurately ripped as in pressing(s) #1
22 [d15760e5] (02/02) Accurately ripped as in pressing(s) #1

Track [ CRC32 ] [W/O NULL] [ LOG ]
– [503BADDC] [6132106A] CRC32
01 [60894961] [9607A835]
02 [271C60D8] [EF94346C]
03 [5E7647B6] [99003AA2]
04 [6CF3E721] [1C79ADFD]
05 [66E0336A] [A460147B]
06 [2E4747DC] [33D3F1F2]
07 [EFDBEC46] [2DB483F0]
08 [58716389] [89101DC2]
09 [4CDAD6C9] [6FAE4A90]
10 [B523FB04] [2AD6D1D4]
11 [6981A532] [440C84BC]
12 [773A8825] [DF4B24EF]
13 [70E73B20] [5A63F839]
14 [7FAFD3DB] [BB17959B]
15 [F7E8DA8E] [524919DC]
16 [F575E007] [F7A419D2]
17 [43EAE4FD] [B5478835]
18 [FB59D925] [4BFBBA5D]
19 [E9AFCE84] [364045F4]
20 [5E5BB800] [257CEDDB]
21 [1AFBF58E] [99FDD5A0]
22 [C008A99D] [91C3A9DC]

––––––––––––––––––––––––––––––-

Harry Nilsson (1967 - 1977) [11CDs, Japanese Press] Re-up

CD08: Harry Nilsson - Pussy Cats (1974)
Pop Rock / Vocal | EAC Rip | Flac(Image) + Cue + Log and MP3 CBR 320Kbps
Scans Included | 2007, BMG Japan, BVCM-35124 | ~ 406 or 186 Mb

The relationship between Harry Nilsson and John Lennon is legendary. They were notorious booze hounds and carousers, getting kicked out of clubs for misbehavior and generally terrorizing L.A. during Lennon's "lost weekend" of 1974. They wanted to make an album together – hell, anyone working at such a peak would – and the result was Pussy Cats, a Nilsson album produced by Lennon. Almost immediately, Nilsson got sick, resulting in a ruptured vocal cord. Not wanting Lennon to stop the sessions, Nilsson never told his friend, stubbornly working his way through the sessions until he lost his voice entirely. These are the sessions that make up Pussy Cats, an utterly bewildering record that's more baffling than entertaining. Like many superstar projects of its time, this is studded with contributions from friends and studio musicians, all intent on having a good time in the studio – which usually means hammering out rock & roll oldies. In this case, it meant both Dylan's "Subterranean Homesick Blues" and the children's song "Loop de Loop," which gives a good idea where Nilsson was at. Through its messiness, Pussy Cats winds up showing how he and Lennon violently careened between hedonism and self-loathing. Of the new songs, the inadvertently revealing "All My Life" is the strongest, followed by the sweet "Don't Forget Me," yet this is more about tone than substance. It's about hearing Nilsson's voice getting progressively harsher, as the backing remains appealingly professional and slick. It doesn't quite jibe, and it's certainly incoherent, but that's its charm. It may not be as wild as the lost weekend itself, but it couldn't have been recorded at any other time and remains a fascinating aural snapshot of the early days of 1974.

by Stephen Thomas Erlewine, AMG
Harry Nilsson (1967 - 1977) [11CDs, Japanese Press] Re-up

Tracklist:

1. Many Rivers To Cross (5:01)
2. Subterranean Homesick Blues (3:21)
3. Don't Forget Me (3:40)
4. All My Life (3:13)
5. Old Forgotten Soldier (4:16)
6. Harry Nilsson and Ken Ascher - Save The Last Dance For Me (4:31)
7. Mucho Mungo/Mt. Elga (3:46)
8. Loop De Loop (2:44)
9. Black Sails (3:18)
10. Rock Around The Clock (3:17)
11. Down By The Sea (5:37)
12. The Flying Saucer Song (6:30)
13. Save The Last Dance For Me (4:29)
14. Old Forgotten Soldier (Demo 1) (3:09)
15. Old Forgotten Soldier (Demo 2) (2:43)

Exact Audio Copy V0.99 prebeta 3 from 28. July 2007

EAC extraction logfile from 7. August 2010, 14:15

Harry Nilsson / Pussy Cats

Used drive : _NEC DVD_RW ND-2510A Adapter: 1 ID: 0

Read mode : Secure
Utilize accurate stream : Yes
Defeat audio cache : Yes
Make use of C2 pointers : No

Read offset correction : 48
Overread into Lead-In and Lead-Out : No
Fill up missing offset samples with silence : Yes
Delete leading and trailing silent blocks : No
Null samples used in CRC calculations : Yes
Used interface : Native Win32 interface for Win NT & 2000

Used output format : User Defined Encoder
Selected bitrate : 1024 kBit/s
Quality : High
Add ID3 tag : No
Command line compressor : C:\Program Files\Exact Audio Copy\Flac\flac.exe
Additional command line options : -8 -V %s


TOC of the extracted CD

Track | Start | Length | Start sector | End sector
––––––––––––––––––––––––––––-
1 | 0:00.00 | 5:01.47 | 0 | 22621
2 | 5:01.47 | 3:21.36 | 22622 | 37732
3 | 8:23.08 | 3:40.17 | 37733 | 54249
4 | 12:03.25 | 3:13.26 | 54250 | 68750
5 | 15:16.51 | 4:16.60 | 68751 | 88010
6 | 19:33.36 | 4:31.41 | 88011 | 108376
7 | 24:05.02 | 3:46.40 | 108377 | 125366
8 | 27:51.42 | 2:44.65 | 125367 | 137731
9 | 30:36.32 | 3:18.67 | 137732 | 152648
10 | 33:55.24 | 3:17.26 | 152649 | 167449
11 | 37:12.50 | 5:37.16 | 167450 | 192740
12 | 42:49.66 | 6:30.39 | 192741 | 222029
13 | 49:20.30 | 4:29.14 | 222030 | 242218
14 | 53:49.44 | 3:09.55 | 242219 | 256448
15 | 56:59.24 | 2:43.46 | 256449 | 268719


Range status and errors

Selected range

Filename I:\Раздача музыки\Nilsson, Harry\Pussy Cats (Japanese issue) (1974)\Harry Nilsson - Pussy Cats.wav

Peak level 100.0 %
Range quality 99.9 %
Test CRC 855CB820
Copy CRC 855CB820
Copy OK

No errors occurred


AccurateRip summary

Track 1 accurately ripped (confidence 1) [47E04172]
Track 2 accurately ripped (confidence 1) [D9686BBD]
Track 3 accurately ripped (confidence 1) [21EFE8D7]
Track 4 accurately ripped (confidence 1) [85486E5A]
Track 5 accurately ripped (confidence 1) [238DA09D]
Track 6 accurately ripped (confidence 1) [FDF8F9D1]
Track 7 accurately ripped (confidence 1) [81AB15CA]
Track 8 accurately ripped (confidence 1) [5D9A94AE]
Track 9 accurately ripped (confidence 1) [CC1D1477]
Track 10 accurately ripped (confidence 1) [6F049B79]
Track 11 accurately ripped (confidence 1) [118706F1]
Track 12 accurately ripped (confidence 1) [704E035C]
Track 13 accurately ripped (confidence 1) [2235EAD6]
Track 14 accurately ripped (confidence 1) [C7854D45]
Track 15 accurately ripped (confidence 1) [FD67DA7C]

All tracks accurately ripped

End of status report

AUDIOCHECKER v2.0 beta (build 457) - by Dester - opdester@freemail.hu
~~~~~~~~~~~~~~~~~~~~~~~~~~~~~~~~~~
-=== DO NOT EDIT THIS FILE! ===-

Path: …\1974 - Pussy Cats (Japanese issue)

01 -=- Harry Nilsson - Pussy Cats.flac -=- CDDA (100%)

198453924

[Verification date: 18.06.2011 1:54:16]
[Disc ID: 0020bb4d-01739abf-c10dfe0f]
Track [ CRC ] Status
01 [47e04172] (01/01) Accurately ripped as in pressing(s) #1
02 [d9686bbd] (01/01) Accurately ripped as in pressing(s) #1
03 [21efe8d7] (01/01) Accurately ripped as in pressing(s) #1
04 [85486e5a] (01/01) Accurately ripped as in pressing(s) #1
05 [238da09d] (01/01) Accurately ripped as in pressing(s) #1
06 [fdf8f9d1] (01/01) Accurately ripped as in pressing(s) #1
07 [81ab15ca] (01/01) Accurately ripped as in pressing(s) #1
08 [5d9a94ae] (01/01) Accurately ripped as in pressing(s) #1
09 [cc1d1477] (01/01) Accurately ripped as in pressing(s) #1
10 [6f049b79] (01/01) Accurately ripped as in pressing(s) #1
11 [118706f1] (01/01) Accurately ripped as in pressing(s) #1
12 [704e035c] (01/01) Accurately ripped as in pressing(s) #1
13 [2235ead6] (01/01) Accurately ripped as in pressing(s) #1
14 [c7854d45] (01/01) Accurately ripped as in pressing(s) #1
15 [fd67da7c] (01/01) Accurately ripped as in pressing(s) #1

Track [ CRC32 ] [W/O NULL] [ LOG ]
– [855CB820] [8AB16166] CRC32
01 [91B38DB5] [2A6CCE7E]
02 [D3997449] [79C770C8]
03 [420ED1A8] [ED5C6F67]
04 [7255B4D8] [E69377C9]
05 [9B8E881F] [34BE0900]
06 [835D004D] [B4B085FD]
07 [82407C36] [D2518EBD]
08 [87FE1C6F] [310BB369]
09 [A526FE24] [2274894E]
10 [B4468CB8] [3E012192]
11 [F1C41174] [CD1DF67C]
12 [49AF4A92] [080DF09E]
13 [CAB4B40C] [229587FB]
14 [B865B86B] [4DF8C94C]
15 [729B31DF] [1EFECE00]

––––––––––––––––––––––––––––––-

Harry Nilsson (1967 - 1977) [11CDs, Japanese Press] Re-up

CD09: Harry Nilsson - Duit On Mon Dei (1975)
Pop Rock / Vocal | EAC Rip | Flac(Image) + Cue + Log and MP3 CBR 320Kbps
Scans | 2002, BMG Japan, BVCM-35125 | ~ 260 or 119 Mb

More tongue-in-cheek wordplay from Harry Nilsson. The album was originally titled God's Greatest Hits, but powers that be persuaded Nilsson to change it. His voice as well as his talent for writing catchy tunes was wearing thin here, and as with previous efforts, nothing stands out like his earlier material. Duit On Mon Dei is an artist on the wane.

by James Chrispell, AMG
Harry Nilsson (1967 - 1977) [11CDs, Japanese Press] Re-up

Tracklist:

1. Jesus Christ You're Tall (1:27)
2. It's A Jungle Out There (3:52)
3. Down By The Sea (2:31)
4. Kojak Columbo (3:18)
5. Easier For Me (2:27)
6. Turn Out The Light (2:35)
7. Salmon Falls (4:15)
8. Puget Sound (2:25)
9. What's Your Sign? (2:53)
10. Home (3:37)
11. Good For God (3:34)
12. Turn Out The Light (2:32)

Exact Audio Copy V0.99 prebeta 3 from 28. July 2007

EAC extraction logfile from 9. August 2010, 14:15

Harry Nilsson / Duit On Mon Dei (God's Greatest Hits) (BVCM-35125)

Used drive : _NEC DVD_RW ND-2510A Adapter: 1 ID: 0

Read mode : Secure
Utilize accurate stream : Yes
Defeat audio cache : Yes
Make use of C2 pointers : No

Read offset correction : 48
Overread into Lead-In and Lead-Out : No
Fill up missing offset samples with silence : Yes
Delete leading and trailing silent blocks : No
Null samples used in CRC calculations : Yes
Used interface : Native Win32 interface for Win NT & 2000

Used output format : User Defined Encoder
Selected bitrate : 1024 kBit/s
Quality : High
Add ID3 tag : No
Command line compressor : C:\Program Files\Exact Audio Copy\Flac\flac.exe
Additional command line options : -8 -V %s


TOC of the extracted CD

Track | Start | Length | Start sector | End sector
––––––––––––––––––––––––––––-
1 | 0:00.00 | 1:27.10 | 0 | 6534
2 | 1:27.10 | 3:52.73 | 6535 | 24007
3 | 5:20.08 | 2:31.37 | 24008 | 35369
4 | 7:51.45 | 3:18.28 | 35370 | 50247
5 | 11:09.73 | 2:27.30 | 50248 | 61302
6 | 13:37.28 | 2:35.26 | 61303 | 72953
7 | 16:12.54 | 4:15.17 | 72954 | 92095
8 | 20:27.71 | 2:25.32 | 92096 | 103002
9 | 22:53.28 | 2:53.02 | 103003 | 115979
10 | 25:46.30 | 3:37.44 | 115980 | 132298
11 | 29:23.74 | 3:34.02 | 132299 | 148350
12 | 32:58.01 | 2:32.24 | 148351 | 159774


Range status and errors

Selected range

Filename I:\Раздача музыки\Nilsson, Harry\Duit On Mon Dei (God's Greatest Hits) (Japanese issue) (1975)\Harry Nilsson - Duit On Mon Dei (God's Greatest Hits) (BVCM-35125).wav

Peak level 100.0 %
Range quality 99.9 %
Test CRC F33F3FB7
Copy CRC F33F3FB7
Copy OK

No errors occurred


AccurateRip summary

Track 1 accurately ripped (confidence 1) [B41327AB]
Track 2 accurately ripped (confidence 1) [25BC5915]
Track 3 accurately ripped (confidence 1) [58C6B008]
Track 4 accurately ripped (confidence 1) [75BA2EF4]
Track 5 accurately ripped (confidence 1) [212C4640]
Track 6 accurately ripped (confidence 1) [53DDE883]
Track 7 accurately ripped (confidence 1) [64D8FADD]
Track 8 accurately ripped (confidence 1) [BD68CA2C]
Track 9 accurately ripped (confidence 1) [4C938BA2]
Track 10 accurately ripped (confidence 1) [8E725F16]
Track 11 accurately ripped (confidence 1) [9714713F]
Track 12 accurately ripped (confidence 1) [2ACE700C]

All tracks accurately ripped

End of status report

AUDIOCHECKER v2.0 beta (build 457) - by Dester - opdester@freemail.hu
~~~~~~~~~~~~~~~~~~~~~~~~~~~~~~~~~~
-=== DO NOT EDIT THIS FILE! ===-

Path: …\1975 - Duit On Mon Dei (God's Greatest Hits) (Japanese issue)

01 -=- Harry Nilsson - Duit On Mon Dei (God's Greatest Hits) (BVCM-35125).flac -=- CDDA (100%)

126098884

Verification date: 18.06.2011 1:54:54]
[Disc ID: 000f49c2-0090d802-b108520c]
Track [ CRC ] Status
01 [b41327ab] (01/01) Accurately ripped as in pressing(s) #1
02 [25bc5915] (01/01) Accurately ripped as in pressing(s) #1
03 [58c6b008] (01/01) Accurately ripped as in pressing(s) #1
04 [75ba2ef4] (01/01) Accurately ripped as in pressing(s) #1
05 [212c4640] (01/01) Accurately ripped as in pressing(s) #1
06 [53dde883] (01/01) Accurately ripped as in pressing(s) #1
07 [64d8fadd] (01/01) Accurately ripped as in pressing(s) #1
08 [bd68ca2c] (01/01) Accurately ripped as in pressing(s) #1
09 [4c938ba2] (01/01) Accurately ripped as in pressing(s) #1
10 [8e725f16] (01/01) Accurately ripped as in pressing(s) #1
11 [9714713f] (01/01) Accurately ripped as in pressing(s) #1
12 [2ace700c] (01/01) Accurately ripped as in pressing(s) #1

Track [ CRC32 ] [W/O NULL] [ LOG ]
– [F33F3FB7] [DCA24172] CRC32
01 [3411A49E] [147BB49A]
02 [CDEFFACD] [BDA4586D]
03 [BADA0F07] [4B1E300D]
04 [1C27FDBC] [101D5FA0]
05 [7EF9A106] [CF010DFE]
06 [628D8043] [50837E2F]
07 [8E0F8DC1] [41F0798F]
08 [CDA921E1] [869898AF]
09 [C39F2A7A] [3DD4371B]
10 [372A5C65] [FE0E0F98]
11 [1867188E] [579D2CCC]
12 [D48CC154] [1B253D30]

––––––––––––––––––––––––––––––-

Harry Nilsson (1967 - 1977) [11CDs, Japanese Press] Re-up

CD10: Harry Nilsson - Sandman (1976)
Pop Rock / Vocal | EAC Rip | Flac(Image) + Cue + Log and MP3 CBR 320Kbps
Scans | BMG Japan, BVCM-35126 | ~ 265 or 122 Mb

Nilsson started going off the tracks at Pussy Cats, but his descent into sheer, unhinged lunacy became apparent with Sandman, his second album of 1975. It was easy to view Duit on Mon Dei as transitory, but this proves that it was a transition to craziness and cultdom. At this point, he was abandoned by Lennon, left alone in L.A. and Nilsson just didn't care. He continued to roam, rampage, and record, ensconcing himself in his own world of in-jokes, Tin Pan Alley melodies, soft rock, clever wit, and sheer drunkenness. Check the cover: on the front, he has a bottle of wine between his legs, on the back he's overcome by a sand crab. On the album itself, he repudiates rock & roll, realizes "Pretty Soon There'll Be Nothing Left for Everybody," has a drunken conversation with himself (so extreme that he's thrown out of the bar), explains why he did not go to work today, writes an ode to flying saucers, offers cheekily literal instructions on how to write a song and then covers a song from the last album. Melodically, he's still strong, but the gleeful craziness overwhelms the pretty music and accessible production, resulting in an album that makes Son of Schmilsson and Pussy Cats seem normal, which may only signal just how far away from the mainstream Nilsson was at this point. But, in a way, he was still brilliant – these are exceptional recordings, and his warped sense of humor is funnier than its ever been. That's not to say that Sandman is an easy record – you have to not only accept Nilsson's quirks, but embrace them more than his talents to love this album – but if your head is properly calibrated, this is one to treasure.

by Stephen Thomas Erlewine, AMG
Harry Nilsson (1967 - 1977) [11CDs, Japanese Press] Re-up

Tracklist:

1. I'll Take A Tango (3:01)
2. Something True (2:58)
3. Pretty Soon There'll Be Nothing Left For Everybody (2:53)
4. The Ivy Covered Walls (3:16)
5. (Thursday) Here's Why I Did Not Go To Work Today (4:08)
6. The Flying Saucer Song (6:45)
7. How To Write A Song (3:15)
8. Jesus Christ You're Tall (4:10)
9. Will She Miss Me (4:48)

Exact Audio Copy V0.99 prebeta 3 from 28. July 2007

EAC extraction logfile from 10. August 2010, 15:15

Harry Nilsson / Sandman

Used drive : _NEC DVD_RW ND-2510A Adapter: 1 ID: 0

Read mode : Secure
Utilize accurate stream : Yes
Defeat audio cache : Yes
Make use of C2 pointers : No

Read offset correction : 48
Overread into Lead-In and Lead-Out : No
Fill up missing offset samples with silence : Yes
Delete leading and trailing silent blocks : No
Null samples used in CRC calculations : Yes
Used interface : Native Win32 interface for Win NT & 2000

Used output format : User Defined Encoder
Selected bitrate : 1024 kBit/s
Quality : High
Add ID3 tag : No
Command line compressor : C:\Program Files\Exact Audio Copy\Flac\flac.exe
Additional command line options : -8 -V %s


TOC of the extracted CD

Track | Start | Length | Start sector | End sector
––––––––––––––––––––––––––––-
1 | 0:00.00 | 3:01.38 | 0 | 13612
2 | 3:01.38 | 2:58.41 | 13613 | 27003
3 | 6:00.04 | 2:53.22 | 27004 | 40000
4 | 8:53.26 | 3:16.13 | 40001 | 54713
5 | 12:09.39 | 4:08.22 | 54714 | 73335
6 | 16:17.61 | 6:45.28 | 73336 | 103738
7 | 23:03.14 | 3:15.16 | 103739 | 118379
8 | 26:18.30 | 4:10.41 | 118380 | 137170
9 | 30:28.71 | 4:48.59 | 137171 | 158829


Range status and errors

Selected range

Filename I:\Раздача музыки\Nilsson, Harry\13. Sandman (Japanese issue) (1976)\Harry Nilsson - Sandman.wav

Peak level 100.0 %
Range quality 100.0 %
Test CRC 11040F52
Copy CRC 11040F52
Copy OK

No errors occurred


AccurateRip summary

Track 1 accurately ripped (confidence 1) [E2D52EAA]
Track 2 accurately ripped (confidence 1) [8E5B0CD3]
Track 3 accurately ripped (confidence 1) [A9A07C1B]
Track 4 accurately ripped (confidence 1) [50243CC1]
Track 5 accurately ripped (confidence 1) [7CA57E69]
Track 6 accurately ripped (confidence 1) [48E68614]
Track 7 accurately ripped (confidence 1) [CD6D69C8]
Track 8 accurately ripped (confidence 1) [F16C14B3]
Track 9 accurately ripped (confidence 1) [E7A658F2]

All tracks accurately ripped

End of status report

AUDIOCHECKER v2.0 beta (build 457) - by Dester - opdester@freemail.hu
~~~~~~~~~~~~~~~~~~~~~~~~~~~~~~~~~~
-=== DO NOT EDIT THIS FILE! ===-

Path: …\1976 - Sandman (Japanese issue)

01 -=- Harry Nilsson - Sandman.flac -=- CDDA (100%)

176496420

[Verification date: 18.06.2011 1:56:03]
[Disc ID: 000b1704-005395f9-75084509]
Track [ CRC ] Status
01 [e2d52eaa] (01/01) Accurately ripped as in pressing(s) #1
02 [8e5b0cd3] (01/01) Accurately ripped as in pressing(s) #1
03 [a9a07c1b] (01/01) Accurately ripped as in pressing(s) #1
04 [50243cc1] (01/01) Accurately ripped as in pressing(s) #1
05 [7ca57e69] (01/01) Accurately ripped as in pressing(s) #1
06 [48e68614] (01/01) Accurately ripped as in pressing(s) #1
07 [cd6d69c8] (01/01) Accurately ripped as in pressing(s) #1
08 [f16c14b3] (01/01) Accurately ripped as in pressing(s) #1
09 [e7a658f2] (01/01) Accurately ripped as in pressing(s) #1

Track [ CRC32 ] [W/O NULL] [ LOG ]
– [11040F52] [7342496D] CRC32
01 [DB2CE9CA] [7EF6F627]
02 [7487AC9B] [61BBEE0C]
03 [1A1F53D7] [51157381]
04 [EBC392F2] [2183DB07]
05 [FE61632E] [E207EED5]
06 [C2622AA3] [9772BC50]
07 [33BFB70F] [4B2C1E34]
08 [9B9EA79F] [09FB2699]
09 [4A049579] [D876189D]

––––––––––––––––––––––––––––––-

Harry Nilsson (1967 - 1977) [11CDs, Japanese Press] Re-up

CD11: Harry Nilsson - Knnillssonn (1977)
Pop Rock / Vocal | EAC Rip | Flac(Image) + Cue + Log and MP3 CBR 320Kbps
Scans | 2002, BMG Japan, BVCM-35128 | ~ 291 or 123 Mb

Realizing that he had nothing left to lose when he got to the end of his RCA contract, Harry Nilsson wound up recording his best, most distinctive record since Pussy Cats, maybe, Son of Schmilsson. Abandoning the very idea of a mainstream pop album is just the beginning of his conceptual coup here with Knnillssonn. Recording almost all of the sounds with keyboards and guitars, Nilsson also decided to drive the guitars into the background. In some ways, this may make it similar to A Little Touch of Schmilsson in the Night, but instead of being a standards record, this is all new material, written in a classical pop style and delivered in a slightly modernistic fashion. The result is an album that's out of step with its time and with the era's music in general. With its old-fashioned pop sensibility and weirdly out of sync production, plus Nilsson's trademark clever songsmithery and impish humor, Knnillssonn is a pop album like no other. It has his best set of songs in many a year, and the production is fascinating, yet at times it sounds like he's trying a little too hard. Still, there are brilliant moments, whether it's a tune as seductive as "All I Think About Is You" or the Agatha Christie murder mystery salute "Who Done It?" For all the cultists who struggled with, and at times embraced, his years of uneven records, this is their reward: an album that may only appeal to a small audience, but that satisfies their every desire about what an album from their favorite artist should be.

by Stephen Thomas Erlewine, AMG
Harry Nilsson (1967 - 1977) [11CDs, Japanese Press] Re-up

Tracklist:

1. All I Think About Is You (4:04)
2. I Never Thought I'd Get This Lonely (5:03)
3. Who Done It? (5:18)
4. Lean On Me (2:49)
5. Goin' Down (3:10)
6. Old Bones (2:59)
7. Sweet Surrender (4:39)
8. Blanket For A Sail (2:32)
9. Laughin' Man (2:53)
10. Perfect Day (3:51)
11. Ain't It Kinda Wonderful (2:10)

Exact Audio Copy V0.99 prebeta 3 from 28. July 2007

EAC extraction logfile from 9. August 2010, 21:47

Nilsson / Knnillssonn

Used drive : _NEC DVD_RW ND-2510A Adapter: 1 ID: 0

Read mode : Secure
Utilize accurate stream : Yes
Defeat audio cache : Yes
Make use of C2 pointers : No

Read offset correction : 48
Overread into Lead-In and Lead-Out : No
Fill up missing offset samples with silence : Yes
Delete leading and trailing silent blocks : No
Null samples used in CRC calculations : Yes
Used interface : Native Win32 interface for Win NT & 2000

Used output format : User Defined Encoder
Selected bitrate : 1024 kBit/s
Quality : High
Add ID3 tag : No
Command line compressor : C:\Program Files\Exact Audio Copy\Flac\flac.exe
Additional command line options : -8 -V %s


TOC of the extracted CD

Track | Start | Length | Start sector | End sector
––––––––––––––––––––––––––––-
1 | 0:00.00 | 4:04.38 | 0 | 18337
2 | 4:04.38 | 5:03.53 | 18338 | 41115
3 | 9:08.16 | 5:18.15 | 41116 | 64980
4 | 14:26.31 | 2:49.18 | 64981 | 77673
5 | 17:15.49 | 3:10.51 | 77674 | 91974
6 | 20:26.25 | 2:59.42 | 91975 | 105441
7 | 23:25.67 | 4:39.49 | 105442 | 126415
8 | 28:05.41 | 2:32.36 | 126416 | 137851
9 | 30:38.02 | 2:53.65 | 137852 | 150891
10 | 33:31.67 | 3:51.39 | 150892 | 168255
11 | 37:23.31 | 2:10.40 | 168256 | 178045


Range status and errors

Selected range

Filename I:\Раздача музыки\Nilsson, Harry\Knnillssonn (1977)\Nilsson - Knnillssonn.wav

Peak level 100.0 %
Range quality 99.9 %
Test CRC ADFA755F
Copy CRC ADFA755F
Copy OK

No errors occurred


AccurateRip summary

Track 1 accurately ripped (confidence 1) [65A37435]
Track 2 accurately ripped (confidence 1) [C314AD1E]
Track 3 accurately ripped (confidence 1) [9CDDFDDB]
Track 4 accurately ripped (confidence 1) [ECBE69B3]
Track 5 accurately ripped (confidence 1) [D1EAE7EE]
Track 6 accurately ripped (confidence 1) [B9FC258E]
Track 7 accurately ripped (confidence 1) [CE925236]
Track 8 accurately ripped (confidence 1) [71C13B69]
Track 9 accurately ripped (confidence 1) [95C19638]
Track 10 accurately ripped (confidence 1) [AB00E3AE]
Track 11 accurately ripped (confidence 1) [869189EA]

All tracks accurately ripped

End of status report

AUDIOCHECKER v2.0 beta (build 457) - by Dester - opdester@freemail.hu
~~~~~~~~~~~~~~~~~~~~~~~~~~~~~~~~~~
-=== DO NOT EDIT THIS FILE! ===-

Path: …\1977 - Knnillssonn (Japanese issue)

01 -=- Nilsson - Knnillssonn.flac -=- CDDA (100%)

89673940

[Verification date: 18.06.2011 1:55:39]
[Disc ID: 0011b71c-00963f13-8809450b]
Track [ CRC ] Status
01 [65a37435] (01/01) Accurately ripped as in pressing(s) #1
02 [c314ad1e] (01/01) Accurately ripped as in pressing(s) #1
03 [9cddfddb] (01/01) Accurately ripped as in pressing(s) #1
04 [ecbe69b3] (01/01) Accurately ripped as in pressing(s) #1
05 [d1eae7ee] (01/01) Accurately ripped as in pressing(s) #1
06 [b9fc258e] (01/01) Accurately ripped as in pressing(s) #1
07 [ce925236] (01/01) Accurately ripped as in pressing(s) #1
08 [71c13b69] (01/01) Accurately ripped as in pressing(s) #1
09 [95c19638] (01/01) Accurately ripped as in pressing(s) #1
10 [ab00e3ae] (01/01) Accurately ripped as in pressing(s) #1
11 [869189ea] (01/01) Accurately ripped as in pressing(s) #1

Track [ CRC32 ] [W/O NULL] [ LOG ]
– [ADFA755F] [DF25FA88] CRC32
01 [4DF92844] [2E646422]
02 [002F822A] [E18DF48C]
03 [A90F831B] [4E155C56]
04 [B54AE8F0] [580E6339]
05 [DD3C1E2F] [B69AC512]
06 [85B5973A] [BAD5203A]
07 [31732984] [89DFB89B]
08 [4FF58D41] [53A60A3D]
09 [C4F60066] [C9EDFB7C]
10 [C3906876] [BAA0231F]
11 [12156888] [A4D77492]

––––

All thanks go to glebchic

Download Harry Nilsson (1967 - 1977) [11CDs, Japanese Press]: