Subcategories

Harry Nilsson - Harry `69 & Nilsson Sings Newman `70 (2000)

Posted By: v3122
Harry Nilsson - Harry `69 & Nilsson Sings Newman `70 (2000)

Harry Nilsson - Harry `69 & Nilsson Sings Newman `70 (2000)
EAC | Flac(Image) + Cue + Log & MP3 CBR 320Kbps
Camden Deluxe, 74321 757442 | ~ 376 or 156 Mb | Scans(jpg) -> 46 Mb
Pop Rock / Classic Rock

A two-fer of Harry and Nilsson Sings Newman was released as part of British RCA Camden's Nilsson reissue campaign of 2000. These two records are a perfect match, since they find Nilsson gently exploring pop, through either a nostalgic prism or through Randy Newman's show tune-influenced pop. The disc also contained two bonus tracks, "Snow" and "Waiting," his contributions to the motion picture Jenny.

~ by Stephen Thomas Erlewine
Harry Nilsson - Harry `69 & Nilsson Sings Newman `70 (2000):

Harry Nilsson - Harry `69 & Nilsson Sings Newman `70 (2000)

Tracklist:

1. The Puppy Song (2:44)
2. Nobody Cares About The Railroads Anymore (2:45)
3. Open Your Window (2:07)
4. Mother Nature's Son (2:44)
5. Fairfax Rag (2:15)
6. City Life (2:32)
7. Mournin' Glory Story (2:15)
8. Maybe (3:10)
9. Marchin' Down Broadway (1:01)
10. I Guess The Lord Must Be In New York City (2:43)
11. Rainmaker (2:50)
12. Mr. Bojangles (3:56)
13. Simon Smith And The Amazing Dancing Bear (2:50)
14. Vine Street (2:52)
15. Love Story (You And Me) (3:43)
16. Yellow Man (2:19)
17. Caroline (2:10)
18. Cowboy (2:50)
19. The Beehive State (2:08)
20. I'll Be Home (2:37)
21. Living Without You (2:35)
22. Dayton Ohio 1903 (1:51)
23. So Long Dad (2:35)
24. Waiting (2:24)
25. Snow (2:27)

Exact Audio Copy V0.99 prebeta 3 from 28. July 2007

EAC extraction logfile from 10. August 2010, 20:47

Harry Nilsson / Harry - Nilsson Sings Newman

Used drive : _NEC DVD_RW ND-2510A Adapter: 1 ID: 0

Read mode : Secure
Utilize accurate stream : Yes
Defeat audio cache : Yes
Make use of C2 pointers : No

Read offset correction : 48
Overread into Lead-In and Lead-Out : No
Fill up missing offset samples with silence : Yes
Delete leading and trailing silent blocks : No
Null samples used in CRC calculations : Yes
Used interface : Native Win32 interface for Win NT & 2000

Used output format : User Defined Encoder
Selected bitrate : 1024 kBit/s
Quality : High
Add ID3 tag : No
Command line compressor : C:\Program Files\Exact Audio Copy\Flac\flac.exe
Additional command line options : -8 -V %s


TOC of the extracted CD

Track | Start | Length | Start sector | End sector
––––––––––––––––––––––––––––-
1 | 0:00.01 | 2:43.55 | 1 | 12280
2 | 2:43.56 | 2:45.15 | 12281 | 24670
3 | 5:28.71 | 2:07.32 | 24671 | 34227
4 | 7:36.28 | 2:44.23 | 34228 | 46550
5 | 10:20.51 | 2:15.18 | 46551 | 56693
6 | 12:35.69 | 2:32.04 | 56694 | 68097
7 | 15:07.73 | 2:15.16 | 68098 | 78238
8 | 17:23.14 | 3:10.29 | 78239 | 92517
9 | 20:33.43 | 1:01.16 | 92518 | 97108
10 | 21:34.59 | 2:43.39 | 97109 | 109372
11 | 24:18.23 | 2:50.38 | 109373 | 122160
12 | 27:08.61 | 3:56.02 | 122161 | 139862
13 | 31:04.63 | 2:50.00 | 139863 | 152612
14 | 33:54.63 | 2:52.10 | 152613 | 165522
15 | 36:46.73 | 3:43.44 | 165523 | 182291
16 | 40:30.42 | 2:19.46 | 182292 | 192762
17 | 42:50.13 | 2:10.41 | 192763 | 202553
18 | 45:00.54 | 2:50.69 | 202554 | 215372
19 | 47:51.48 | 2:08.30 | 215373 | 225002
20 | 50:00.03 | 2:37.56 | 225003 | 236833
21 | 52:37.59 | 2:35.17 | 236834 | 248475
22 | 55:13.01 | 1:51.72 | 248476 | 256872
23 | 57:04.73 | 2:35.05 | 256873 | 268502
24 | 59:40.03 | 2:24.61 | 268503 | 279363
25 | 62:04.64 | 2:27.58 | 279364 | 290446


Range status and errors

Selected range

Filename I:\Раздача музыки Torrents\Nilsson, Harry\6. Harry (1969), Nilsson Sings Newman (1970)\Harry Nilsson - Harry - Nilsson Sings Newman.wav

Peak level 98.8 %
Range quality 100.0 %
Test CRC 580DD843
Copy CRC 580DD843
Copy OK

No errors occurred


AccurateRip summary

Track 1 not present in database
Track 2 not present in database
Track 3 not present in database
Track 4 not present in database
Track 5 not present in database
Track 6 not present in database
Track 7 not present in database
Track 8 not present in database
Track 9 not present in database
Track 10 not present in database
Track 11 not present in database
Track 12 not present in database
Track 13 not present in database
Track 14 not present in database
Track 15 not present in database
Track 16 not present in database
Track 17 not present in database
Track 18 not present in database
Track 19 not present in database
Track 20 not present in database
Track 21 not present in database
Track 22 not present in database
Track 23 not present in database
Track 24 not present in database
Track 25 not present in database

None of the tracks are present in the AccurateRip database

End of status report


[CUETools log; Date: 17.11.2017 5:38:22; Version: 2.1.5]
Pregap length 00:00:01.
[AccurateRip ID: 0039f585-041676c3-4d0f2019] found.
Track [ CRC | V2 ] Status
01 [d426e466|ff9e78c2] (0+0/0) No match
02 [0a1e7098|8f1dc18f] (0+0/0) No match
03 [7c5424a1|736070f0] (0+0/0) No match
04 [ae38ed05|a528bd78] (0+0/0) No match
05 [738d7bee|d4322845] (0+0/0) No match
06 [3ccb0e3c|1c654004] (0+0/0) No match
07 [ebf84759|0fe491eb] (0+0/0) No match
08 [3507d9e0|c07564fe] (0+0/0) No match
09 [3a220403|c1a047ff] (0+0/0) No match
10 [e0d9dffc|c26545ae] (0+0/0) No match
11 [c681995c|61f918f5] (0+0/0) No match
12 [6a755cc0|572519cb] (0+0/0) No match
13 [7437e16a|78aea2bc] (0+0/1) No match
14 [3b9281df|d6122a01] (0+0/1) No match
15 [44e1d5d8|d961a089] (0+0/1) No match
16 [1f54f4f8|0bbf0d6b] (0+0/1) No match
17 [005155e4|78e59510] (0+0/1) No match
18 [df4a542c|76953abd] (0+0/1) No match
19 [b70ee7f0|48c0e0a4] (0+0/1) No match
20 [73416b3a|4951e589] (0+0/1) No match
21 [a99fd33d|0c96da1a] (0+0/1) No match
22 [80fa05ff|bfaa6600] (0+0/1) No match
23 [e0da4ad7|73939226] (0+0/1) No match
24 [ff015615|cc64e362] (0+0/1) No match
25 [592718da|50065f90] (0+0/1) No match
Offsetted by -30:
01 [1940d19a] (0/0) No match
02 [898f0d84] (0/0) No match
03 [c9e56565] (0/0) No match
04 [8dd26663] (0/0) No match
05 [5292f57a] (0/0) No match
06 [41df2330] (0/0) No match
07 [eb6adb53] (0/0) No match
08 [a64b5f02] (0/0) No match
09 [d9fc7e05] (0/0) No match
10 [69dae326] (0/0) No match
11 [cb29ca28] (0/0) No match
12 [8258b31a] (0/0) No match
13 [9672ba94] (0/1) No match (V2 was not tested)
14 [f76a9d9f] (0/1) No match (V2 was not tested)
15 [2685953e] (0/1) No match (V2 was not tested)
16 [d5e38082] (0/1) No match (V2 was not tested)
17 [d5a50dec] (0/1) No match (V2 was not tested)
18 [7922100c] (0/1) No match (V2 was not tested)
19 [084d48da] (0/1) No match (V2 was not tested)
20 [4342361e] (0/1) No match (V2 was not tested)
21 [b668a25f] (0/1) No match (V2 was not tested)
22 [32a6fdbb] (0/1) No match (V2 was not tested)
23 [e99db6ad] (0/1) No match (V2 was not tested)
24 [e1ab1a67] (0/1) No match (V2 was not tested)
25 [46c62ac0] (0/1) No match (V2 was not tested)

Track Peak [ CRC32 ] [W/O NULL] [ LOG ]
– 98,8 [580DD843] [10FFADF3] CRC32
01 98,8 [9D5DCCB5] [D25D023F]
02 98,8 [D54BCE9C] [6A15590A]
03 92,4 [47BA3D79] [3C327330]
04 73,4 [8F3E71C4] [5BD1038D]
05 98,3 [91B1C743] [51FDFCFD]
06 83,6 [E7FCFD45] [029C600D]
07 88,3 [7C99F760] [00E8FF49]
08 97,9 [BDF2533E] [FD5A4EC5]
09 96,8 [A6CC49A0] [49AA0A7B]
10 98,8 [70B5221D] [C89F7539]
11 98,8 [E8D0A57A] [F28C6168]
12 98,8 [1BCC4E8D] [085E2D51]
13 98,8 [E4163707] [C41FB267]
14 94,6 [B925D46D] [848D229F]
15 76,5 [DE52ABB5] [98FD07CB]
16 95,7 [118DAC27] [3F54BC95]
17 98,8 [E36AABE2] [A5E80683]
18 97,3 [BC22116B] [5BB44FB5]
19 95,6 [917F54C2] [7F4EB961]
20 96,6 [7DE9FA78] [8ACB5A2A]
21 84,8 [0D7E8A61] [70058FA8]
22 87,4 [5072550F] [8786B56E]
23 98,8 [E9CA2729] [B857C459]
24 65,4 [0A1F23CB] [6720513D]
25 83,1 [9AE9444F] [22BF3896]


Harry Nilsson - Harry `69 & Nilsson Sings Newman `70 (2000)

All thanks go to the original releaser

Harry Nilsson or Harry Nilsson in my Blog

Download Harry Nilsson - Harry `69 & Nilsson Sings Newman `70 (2000):