Subcategories

Harry Partch - Delusion Of The Fury: A Ritual Of Dream And Delusion (1999)

Posted By: tirexiss
Harry Partch - Delusion Of The Fury: A Ritual Of Dream And Delusion (1999)

Harry Partch - Delusion Of The Fury: A Ritual Of Dream And Delusion (1999)
EAC | FLAC (tracks+.cue, log) | Covers Included | 01:12:08 | 458 MB
Genre: Modern Classical, Avant-Garde | Label: Innova Recordings | Catalog: innova 406

After 30 years, this is the reissue of the classic Columbia Masterworks recording from January 1969. It was one of the first commercially produced tapes of a Harry Partch tape performance, and the first opportunity most listeners ever had to hear a large-scale Partch music drama in fine sound. Partch had once remarked that the purity of his just-intoned chords was compromised by any kind of recording where vibrations of the drive motors get into the sound chain, whether on a turntable or a tape transport mechanism. The original recording, produced by Columbia's ace producer John McClure and engineered by Jack Latig and Ed Michalski, was a revelation. It and a companion demonstration disc plus one more Columbia recording virtually kept interest in Partch alive for 15 years. The sound of the LP was amazingly wide ranging, including the majestic power of the nearly sub-bass instrument the marimba eroica. It sounds even better here. All vibrations in the mastering and playback stage have been eliminated, leaving only the minuscule amount that McClure's team could not exclude. Now on just one disc, it is an outstanding document and a great introduction to Partch's unique musical vision. The performance is led by Danlee Mitchell, who also had to teach the players how to play the instruments and read their parts. He did a magnificent job. The performance ranges from haunting to sonically overwhelming to truly funny. At first hearing, nearly everyone finds Partch's music, written outside the familiar piano scale, to be weird. But this joyful and splendid recorded performance is one of the best introductions to it imaginable.

Harry Partch - Delusion Of The Fury: A Ritual Of Dream And Delusion (1999)

Track List:

Exordium:
1. The Beginning Of A Web 10:45
Act I: Treats With Death And With Life Despite Death, On A Japanese Theme. Scene—A Shrine
2. Chorus Of Shadows 5:09
3. The Pilgrimage 4:15
4. Emergence Of The Spirit 3:32
5. A Son In Search Of His Fathers Face 6:01
6. Cry From Another Darkness 4:43
7. Pray For Me 3:02
Sanctus:
8. An Entr’acte 6:20
Act II: Treats With Life And With Life Despite Life, Based On An African Folk Tale
9. The Quiet Hobo Meal 2:59
10. The Lost Kid 2:51
11. Time Of Fun Together 8:08
12. The Misunderstanding 6:03
13. Arrest, Trial And Judgement (Joy In The Marketplace!) 4:43
14. Pray For Me Again - A STRANGE FEAR! 3:31

Bass Vocals - Paul Bergen
Composed By - Harry Partch
Conductor - Danlee Mitchell
Performer - Bill Symons, Jr. , Carol Brown (4) , Dean Drummond , Emil Richards , Frank Berberich , Gary Coleman , Joe Roccisano , John Grayson , John McAllister , Latif Allen , Linda Schell , Lynn Taussig , Mark Stevens , Michael Aaron , Nathan Widato , Robert McCormick , Robert Randles , Robert Rose (2) , Ruth Ritchie , Stephen Tosh , Todd Miller
Soprano Vocals - Victoria Bond
Tenor Vocals, Performer - John Stannard

Exact Audio Copy V0.99 prebeta 5 from 4. May 2009

EAC extraction logfile from 21. July 2009, 2:57

Harry Partch / Delusion of the Fury

Used drive : HL-DT-STDVD-RAM GH22LS30 Adapter: 0 ID: 1

Read mode : Secure
Utilize accurate stream : Yes
Defeat audio cache : Yes
Make use of C2 pointers : No

Read offset correction : 102
Overread into Lead-In and Lead-Out : No
Fill up missing offset samples with silence : Yes
Delete leading and trailing silent blocks : No
Null samples used in CRC calculations : Yes
Used interface : Installed external ASPI interface
Gap handling : Appended to previous track

Used output format : User Defined Encoder
Selected bitrate : 320 kBit/s
Quality : High
Add ID3 tag : No
Command line compressor : C:\Programme\Exact Audio Copy\Flac\flac.exe
Additional command line options : -V -8 -T "artist=%a" -T "title=%t" -T "album=%g" -T "date=%y" -T "tracknumber=%n" -T "genre=%m" %s


TOC of the extracted CD

Track | Start | Length | Start sector | End sector
––––––––––––––––––––––––––––-
1 | 0:00.00 | 10:45.37 | 0 | 48411
2 | 10:45.37 | 5:09.68 | 48412 | 71654
3 | 15:55.30 | 4:15.35 | 71655 | 90814
4 | 20:10.65 | 3:32.10 | 90815 | 106724
5 | 23:43.00 | 6:01.57 | 106725 | 133856
6 | 29:44.57 | 4:43.40 | 133857 | 155121
7 | 34:28.22 | 3:02.23 | 155122 | 168794
8 | 37:30.45 | 6:20.20 | 168795 | 197314
9 | 43:50.65 | 2:59.05 | 197315 | 210744
10 | 46:49.70 | 2:51.37 | 210745 | 223606
11 | 49:41.32 | 8:08.13 | 223607 | 260219
12 | 57:49.45 | 6:03.67 | 260220 | 287511
13 | 63:53.37 | 4:43.23 | 287512 | 308759
14 | 68:36.60 | 3:31.32 | 308760 | 324616


Track 1

Filename Z:\mnt\Media\what\Harry Partch - 1999 - Delusion of the Fury\01 - EXORDIUM- The Beginning of a Web.wav

Pre-gap length 0:00:02.00

Peak level 88.0 %
Track quality 100.0 %
Test CRC 6143344E
Copy CRC 6143344E
Accurately ripped (confidence 4) [19755EF7]
Copy OK

Track 2

Filename Z:\mnt\Media\what\Harry Partch - 1999 - Delusion of the Fury\02 - Chorus of Shadows.wav

Peak level 72.2 %
Track quality 100.0 %
Test CRC 79B3245E
Copy CRC 79B3245E
Accurately ripped (confidence 4) [89C1661A]
Copy OK

Track 3

Filename Z:\mnt\Media\what\Harry Partch - 1999 - Delusion of the Fury\03 - The Pilgrimage.wav

Peak level 70.4 %
Track quality 100.0 %
Test CRC 7642C2E3
Copy CRC 7642C2E3
Accurately ripped (confidence 4) [6FEF9EE4]
Copy OK

Track 4

Filename Z:\mnt\Media\what\Harry Partch - 1999 - Delusion of the Fury\04 - Emergence of the Spirit.wav

Peak level 85.7 %
Track quality 100.0 %
Test CRC 02ED7D77
Copy CRC 02ED7D77
Accurately ripped (confidence 4) [7D3AC37E]
Copy OK

Track 5

Filename Z:\mnt\Media\what\Harry Partch - 1999 - Delusion of the Fury\05 - A Son in Search of His Father's Face.wav

Peak level 89.1 %
Track quality 100.0 %
Test CRC 9D78D200
Copy CRC 9D78D200
Accurately ripped (confidence 4) [406BC1E8]
Copy OK

Track 6

Filename Z:\mnt\Media\what\Harry Partch - 1999 - Delusion of the Fury\06 - Cry from Another Darkness.wav

Peak level 89.1 %
Track quality 100.0 %
Test CRC 7E9325B9
Copy CRC 7E9325B9
Accurately ripped (confidence 4) [4A55CCDF]
Copy OK

Track 7

Filename Z:\mnt\Media\what\Harry Partch - 1999 - Delusion of the Fury\07 - Pray for Me.wav

Peak level 89.1 %
Track quality 99.9 %
Test CRC 1406E83B
Copy CRC 1406E83B
Accurately ripped (confidence 4) [9B9419C6]
Copy OK

Track 8

Filename Z:\mnt\Media\what\Harry Partch - 1999 - Delusion of the Fury\08 - SANCTUS- An Entr'acte.wav

Peak level 84.1 %
Track quality 100.0 %
Test CRC 25BC9467
Copy CRC 25BC9467
Accurately ripped (confidence 4) [D94F221A]
Copy OK

Track 9

Filename Z:\mnt\Media\what\Harry Partch - 1999 - Delusion of the Fury\09 - The Quiet Hobo Meal.wav

Peak level 70.1 %
Track quality 100.0 %
Test CRC 4E6017CA
Copy CRC 4E6017CA
Accurately ripped (confidence 4) [D9D3F2A2]
Copy OK

Track 10

Filename Z:\mnt\Media\what\Harry Partch - 1999 - Delusion of the Fury\10 - The Lost Kid.wav

Peak level 79.6 %
Track quality 100.0 %
Test CRC 74C7704C
Copy CRC 74C7704C
Accurately ripped (confidence 4) [9432ABDE]
Copy OK

Track 11

Filename Z:\mnt\Media\what\Harry Partch - 1999 - Delusion of the Fury\11 - Time of Fun Together.wav

Peak level 89.1 %
Track quality 100.0 %
Test CRC F60BE995
Copy CRC F60BE995
Accurately ripped (confidence 4) [2AC096A3]
Copy OK

Track 12

Filename Z:\mnt\Media\what\Harry Partch - 1999 - Delusion of the Fury\12 - The Misunderstanding.wav

Peak level 81.2 %
Track quality 100.0 %
Test CRC 117E3E49
Copy CRC 117E3E49
Accurately ripped (confidence 4) [69608B8B]
Copy OK

Track 13

Filename Z:\mnt\Media\what\Harry Partch - 1999 - Delusion of the Fury\13 - Arrest, Trial and Judgement (Joy in the Marketplace!).wav

Peak level 89.1 %
Track quality 100.0 %
Test CRC DDFF1405
Copy CRC DDFF1405
Accurately ripped (confidence 4) [3792D07B]
Copy OK

Track 14

Filename Z:\mnt\Media\what\Harry Partch - 1999 - Delusion of the Fury\14 - Pray for Me Again–A STRANGE FEAR!.wav

Peak level 86.4 %
Track quality 100.0 %
Test CRC D1A46951
Copy CRC D1A46951
Accurately ripped (confidence 4) [31D2705F]
Copy OK


All tracks accurately ripped

No errors occurred

End of status report

[CUETools log; Date: 04.10.2017 13:38:26; Version: 2.1.5]
[CTDB TOCID: S0Y_Xc7jOP45wmpV1tIJyh7.dV4-] found.
Track | CTDB Status
1 | (13/13) Accurately ripped
2 | (13/13) Accurately ripped
3 | (13/13) Accurately ripped
4 | (13/13) Accurately ripped
5 | (13/13) Accurately ripped
6 | (13/13) Accurately ripped
7 | (13/13) Accurately ripped
8 | (13/13) Accurately ripped
9 | (13/13) Accurately ripped
10 | (13/13) Accurately ripped
11 | (13/13) Accurately ripped
12 | (13/13) Accurately ripped
13 | (12/13) Accurately ripped
14 | (13/13) Accurately ripped
[AccurateRip ID: 00277dfd-01999830-c310e80e] found.
Track [ CRC | V2 ] Status
01 [19755ef7|1940aef8] (06+08/14) Accurately ripped
02 [89c1661a|b24bdb68] (06+08/14) Accurately ripped
03 [6fef9ee4|5d765751] (06+08/14) Accurately ripped
04 [7d3ac37e|4929f780] (06+08/14) Accurately ripped
05 [406bc1e8|eb41266d] (06+08/14) Accurately ripped
06 [4a55ccdf|9ab5b7f5] (06+08/14) Accurately ripped
07 [9b9419c6|5907167e] (06+08/14) Accurately ripped
08 [d94f221a|711c3a99] (06+08/14) Accurately ripped
09 [d9d3f2a2|f6a6669b] (06+08/14) Accurately ripped
10 [9432abde|37ccda00] (06+08/14) Accurately ripped
11 [2ac096a3|8ac97187] (06+08/14) Accurately ripped
12 [69608b8b|b3ea72a3] (06+08/14) Accurately ripped
13 [3792d07b|bdebdaf2] (06+08/14) Accurately ripped
14 [31d2705f|b0b0fd2c] (06+08/14) Accurately ripped
Offsetted by -664:
01 [c1a12754] (00/14) No match (V2 was not tested)
02 [38421779] (00/14) No match (V2 was not tested)
03 [ff74d5f8] (00/14) No match (V2 was not tested)
04 [f4147a4e] (00/14) No match (V2 was not tested)
05 [43fbebcb] (00/14) No match (V2 was not tested)
06 [167815d3] (00/14) No match (V2 was not tested)
07 [fb31a71b] (00/14) No match (V2 was not tested)
08 [7e8aebf1] (00/14) No match (V2 was not tested)
09 [1dae4337] (00/14) No match (V2 was not tested)
10 [80ce1741] (00/14) No match (V2 was not tested)
11 [a3fdf39c] (00/14) No match (V2 was not tested)
12 [871949ac] (00/14) No match (V2 was not tested)
13 [8f21cba9] (00/14) No match (V2 was not tested)
14 [aa6441af] (00/14) No match (V2 was not tested)

Track Peak [ CRC32 ] [W/O NULL] [ LOG ]
– 89,1 [ECEFF9BA] [F882A7CC]
01 88,0 [6143344E] [CD425756] CRC32
02 72,2 [79B3245E] [CA5FB64C] CRC32
03 70,4 [7642C2E3] [160E4FEC] CRC32
04 85,7 [02ED7D77] [CD839A67] CRC32
05 89,1 [9D78D200] [9AE5AED6] CRC32
06 89,1 [7E9325B9] [F66ECE3F] CRC32
07 89,1 [1406E83B] [01D7BB44] CRC32
08 84,1 [25BC9467] [3BFE9A7E] CRC32
09 70,1 [4E6017CA] [99E073A4] CRC32
10 79,6 [74C7704C] [D92B6B4D] CRC32
11 89,1 [F60BE995] [B530E92D] CRC32
12 81,2 [117E3E49] [C186CDAC] CRC32
13 89,1 [DDFF1405] [36C13ECF] CRC32
14 86,4 [D1A46951] [98A27356] CRC32

Harry Partch - Delusion Of The Fury: A Ritual Of Dream And Delusion (1999)

Thanks to the Original ripper (unknown)!

Download: