Subcategories

Harry Nilsson - A Little Touch Of Schmilsson In The Night 1973 (Remastered 2002)

Posted By: Pisulik
Harry Nilsson - A Little Touch Of Schmilsson In The Night 1973 (Remastered 2002)

Harry Nilsson - A Little Touch Of Schmilsson In The Night 1973 (Remastered 2002)
EAC Rip | FLAC (Tracks) +cue, log, m3u, covers - 281 MB | 00:53:50
Jazz, Pop, Vocal | Label: BMG UK & Ireland Ltd.

In the early '70s rock stars did not make standards albums, but that's what Nilsson did with this 1973 LP. He nearly cracked the Top 40, too, backed by Gordon Jenkins' orchestra as he sets that beautiful voice free on As Time Goes By; It Had to Be You; Always ; six bonus outtakes unissued in the U.S., and more.

TRACKLIST

01. Intro
02. Lazy Moon
03. For Me And My Gal
04. It Had To Be You
05. Always
06. Makin' Whoopee!
07. You Made Me Love You (I Didn't Want To Do It)
08. Lullaby In Ragtime
09. I Wonder Who's Kissing Her Now
10. What'll I Do
11. Nevertheless (I'm In Love With You)
12. This Is All I Ask
13. I'm Always Chasing Rainbows
14. Make Believe
15. Trust In Me
16. It's Only A Paper Moon
17. Thanks For The Memory
18. Over The Rainbow
19. As Time Goes By

Exact Audio Copy V1.3 from 2. September 2016

EAC extraction logfile from 4. July 2017, 16:51

Harry Nilsson / A Little Touch Of Schmilsson In The Night (2002 Remaster)

Used drive : HL-DT-STBD-RE WH14NS40 Adapter: 1 ID: 2

Read mode : Secure
Utilize accurate stream : Yes
Defeat audio cache : Yes
Make use of C2 pointers : No

Read offset correction : 6
Overread into Lead-In and Lead-Out : No
Fill up missing offset samples with silence : Yes
Delete leading and trailing silent blocks : No
Null samples used in CRC calculations : Yes
Used interface : Native Win32 interface for Win NT & 2000
Gap handling : Appended to previous track

Used output format : User Defined Encoder
Selected bitrate : 896 kBit/s
Quality : High
Add ID3 tag : No
Command line compressor : C:\Program Files (x86)\Exact Audio Copy\Flac\flac.exe
Additional command line options : -8 -V -T "artist=%artist%" -T "title=%title%" -T "album=%albumtitle%" -T "date=%year%" -T "tracknumber=%tracknr%" -T "genre=%genre%" %source%


TOC of the extracted CD

Track | Start | Length | Start sector | End sector
––––––––––––––––––––––––––––-
1 | 0:00.00 | 0:14.57 | 0 | 1106
2 | 0:14.57 | 3:21.60 | 1107 | 16241
3 | 3:36.42 | 2:48.00 | 16242 | 28841
4 | 6:24.42 | 2:31.15 | 28842 | 40181
5 | 8:55.57 | 1:49.15 | 40182 | 48371
6 | 10:44.72 | 4:31.13 | 48372 | 68709
7 | 15:16.10 | 2:32.20 | 68710 | 80129
8 | 17:48.30 | 3:41.02 | 80130 | 96706
9 | 21:29.32 | 2:38.68 | 96707 | 108624
10 | 24:08.25 | 2:27.02 | 108625 | 119651
11 | 26:35.27 | 2:39.65 | 119652 | 131641
12 | 29:15.17 | 3:36.60 | 131642 | 147901
13 | 32:52.02 | 3:16.05 | 147902 | 162606
14 | 36:08.07 | 2:21.55 | 162607 | 173236
15 | 38:29.62 | 2:26.20 | 173237 | 184206
16 | 40:56.07 | 3:12.40 | 184207 | 198646
17 | 44:08.47 | 2:46.10 | 198647 | 211106
18 | 46:54.57 | 3:29.18 | 211107 | 226799
19 | 50:24.00 | 3:26.00 | 226800 | 242249


Track 1

Filename D:\burn\Harry Nilsson - A Little Touch Of Schmilsson In The Night (2002 Remaster) (1973) (flac)\01 - Harry Nilsson - Intro.wav

Pre-gap length 0:00:02.00

Peak level 27.2 %
Extraction speed 0.5 X
Track quality 100.0 %
Test CRC DAF52325
Copy CRC DAF52325
Accurately ripped (confidence 2) [255AD456] (AR v2)
Copy OK

Track 2

Filename D:\burn\Harry Nilsson - A Little Touch Of Schmilsson In The Night (2002 Remaster) (1973) (flac)\02 - Harry Nilsson - Lazy Moon.wav

Peak level 94.1 %
Extraction speed 1.0 X
Track quality 100.0 %
Test CRC 0B66F04D
Copy CRC 0B66F04D
Accurately ripped (confidence 2) [AAA9453C] (AR v2)
Copy OK

Track 3

Filename D:\burn\Harry Nilsson - A Little Touch Of Schmilsson In The Night (2002 Remaster) (1973) (flac)\03 - Harry Nilsson - For Me And My Gal.wav

Peak level 87.2 %
Extraction speed 0.9 X
Track quality 99.9 %
Test CRC D053BC81
Copy CRC D053BC81
Accurately ripped (confidence 2) [267E3BE4] (AR v2)
Copy OK

Track 4

Filename D:\burn\Harry Nilsson - A Little Touch Of Schmilsson In The Night (2002 Remaster) (1973) (flac)\04 - Harry Nilsson - It Had To Be You.wav

Peak level 97.2 %
Extraction speed 1.1 X
Track quality 100.0 %
Test CRC 6DF9D9A8
Copy CRC 6DF9D9A8
Accurately ripped (confidence 2) [AFC1B6DA] (AR v2)
Copy OK

Track 5

Filename D:\burn\Harry Nilsson - A Little Touch Of Schmilsson In The Night (2002 Remaster) (1973) (flac)\05 - Harry Nilsson - Always.wav

Peak level 95.2 %
Extraction speed 0.8 X
Track quality 99.9 %
Test CRC 5807638C
Copy CRC 5807638C
Accurately ripped (confidence 2) [5C546FA8] (AR v2)
Copy OK

Track 6

Filename D:\burn\Harry Nilsson - A Little Touch Of Schmilsson In The Night (2002 Remaster) (1973) (flac)\06 - Harry Nilsson - Makin' Whoopee!.wav

Peak level 90.2 %
Extraction speed 1.3 X
Track quality 100.0 %
Test CRC 17D459F2
Copy CRC 17D459F2
Accurately ripped (confidence 2) [5816F2C4] (AR v2)
Copy OK

Track 7

Filename D:\burn\Harry Nilsson - A Little Touch Of Schmilsson In The Night (2002 Remaster) (1973) (flac)\07 - Harry Nilsson - You Made Me Love You (I Didn't Want To Do It).wav

Peak level 86.8 %
Extraction speed 1.3 X
Track quality 100.0 %
Test CRC 64CB4986
Copy CRC 64CB4986
Accurately ripped (confidence 2) [0043FA0C] (AR v2)
Copy OK

Track 8

Filename D:\burn\Harry Nilsson - A Little Touch Of Schmilsson In The Night (2002 Remaster) (1973) (flac)\08 - Harry Nilsson - Lullaby In Ragtime.wav

Peak level 98.8 %
Extraction speed 1.4 X
Track quality 100.0 %
Test CRC 6371970F
Copy CRC 6371970F
Accurately ripped (confidence 2) [AA43A82D] (AR v2)
Copy OK

Track 9

Filename D:\burn\Harry Nilsson - A Little Touch Of Schmilsson In The Night (2002 Remaster) (1973) (flac)\09 - Harry Nilsson - I Wonder Who's Kissing Her Now.wav

Peak level 80.7 %
Extraction speed 1.4 X
Track quality 100.0 %
Test CRC 0ECA805B
Copy CRC 0ECA805B
Accurately ripped (confidence 2) [7251088C] (AR v2)
Copy OK

Track 10

Filename D:\burn\Harry Nilsson - A Little Touch Of Schmilsson In The Night (2002 Remaster) (1973) (flac)\10 - Harry Nilsson - What'll I Do.wav

Peak level 91.7 %
Extraction speed 1.2 X
Track quality 99.9 %
Test CRC 8749DB2C
Copy CRC 8749DB2C
Accurately ripped (confidence 2) [7ABFD9F8] (AR v2)
Copy OK

Track 11

Filename D:\burn\Harry Nilsson - A Little Touch Of Schmilsson In The Night (2002 Remaster) (1973) (flac)\11 - Harry Nilsson - Nevertheless (I'm In Love With You).wav

Peak level 85.4 %
Extraction speed 1.5 X
Track quality 100.0 %
Test CRC EC7CA201
Copy CRC EC7CA201
Accurately ripped (confidence 2) [747CF2A9] (AR v2)
Copy OK

Track 12

Filename D:\burn\Harry Nilsson - A Little Touch Of Schmilsson In The Night (2002 Remaster) (1973) (flac)\12 - Harry Nilsson - This Is All I Ask.wav

Peak level 76.6 %
Extraction speed 1.4 X
Track quality 99.9 %
Test CRC 815DCD50
Copy CRC 815DCD50
Accurately ripped (confidence 2) [E9A78DC3] (AR v2)
Copy OK

Track 13

Filename D:\burn\Harry Nilsson - A Little Touch Of Schmilsson In The Night (2002 Remaster) (1973) (flac)\13 - Harry Nilsson - I'm Always Chasing Rainbows.wav

Peak level 80.5 %
Extraction speed 1.7 X
Track quality 100.0 %
Test CRC FED2B320
Copy CRC FED2B320
Accurately ripped (confidence 2) [7E94CA3E] (AR v2)
Copy OK

Track 14

Filename D:\burn\Harry Nilsson - A Little Touch Of Schmilsson In The Night (2002 Remaster) (1973) (flac)\14 - Harry Nilsson - Make Believe.wav

Peak level 74.5 %
Extraction speed 1.3 X
Track quality 99.9 %
Test CRC 5A0A961A
Copy CRC 5A0A961A
Accurately ripped (confidence 2) [CEE80374] (AR v2)
Copy OK

Track 15

Filename D:\burn\Harry Nilsson - A Little Touch Of Schmilsson In The Night (2002 Remaster) (1973) (flac)\15 - Harry Nilsson - Trust In Me.wav

Peak level 67.6 %
Extraction speed 1.7 X
Track quality 100.0 %
Test CRC A656BA33
Copy CRC A656BA33
Accurately ripped (confidence 2) [619A8C1B] (AR v2)
Copy OK

Track 16

Filename D:\burn\Harry Nilsson - A Little Touch Of Schmilsson In The Night (2002 Remaster) (1973) (flac)\16 - Harry Nilsson - It's Only A Paper Moon.wav

Peak level 71.5 %
Extraction speed 1.5 X
Track quality 99.9 %
Test CRC 5789968E
Copy CRC 5789968E
Accurately ripped (confidence 2) [111FEE19] (AR v2)
Copy OK

Track 17

Filename D:\burn\Harry Nilsson - A Little Touch Of Schmilsson In The Night (2002 Remaster) (1973) (flac)\17 - Harry Nilsson - Thanks For The Memory.wav

Peak level 71.5 %
Extraction speed 1.8 X
Track quality 100.0 %
Test CRC 8EAD52F2
Copy CRC 8EAD52F2
Accurately ripped (confidence 2) [BEA97B1E] (AR v2)
Copy OK

Track 18

Filename D:\burn\Harry Nilsson - A Little Touch Of Schmilsson In The Night (2002 Remaster) (1973) (flac)\18 - Harry Nilsson - Over The Rainbow.wav

Peak level 82.0 %
Extraction speed 1.9 X
Track quality 100.0 %
Test CRC BACA04AC
Copy CRC BACA04AC
Accurately ripped (confidence 2) [7C26FD2D] (AR v2)
Copy OK

Track 19

Filename D:\burn\Harry Nilsson - A Little Touch Of Schmilsson In The Night (2002 Remaster) (1973) (flac)\19 - Harry Nilsson - As Time Goes By.wav

Peak level 89.7 %
Extraction speed 2.0 X
Track quality 100.0 %
Test CRC E55B07E3
Copy CRC E55B07E3
Accurately ripped (confidence 2) [BDA81932] (AR v2)
Copy OK


All tracks accurately ripped

No errors occurred

End of status report

–– CUETools DB Plugin V2.1.6

[CTDB TOCID: vJ.Fmo0KHn9hkXbgGvJKE9nOedM-] found
Submit result: vJ.Fmo0KHn9hkXbgGvJKE9nOedM- has been confirmed
Track | CTDB Status
1 | (20/20) Accurately ripped
2 | (20/20) Accurately ripped
3 | (20/20) Accurately ripped
4 | (20/20) Accurately ripped
5 | (20/20) Accurately ripped
6 | (20/20) Accurately ripped
7 | (20/20) Accurately ripped
8 | (20/20) Accurately ripped
9 | (20/20) Accurately ripped
10 | (20/20) Accurately ripped
11 | (20/20) Accurately ripped
12 | (20/20) Accurately ripped
13 | (20/20) Accurately ripped
14 | (20/20) Accurately ripped
15 | (19/20) Accurately ripped
16 | (19/20) Accurately ripped
17 | (19/20) Accurately ripped
18 | (19/20) Accurately ripped
19 | (19/20) Accurately ripped


==== Log checksum B4E04719260D01B65B8D5F7A22E02BAF53748672C1CA7D6813F07A5C34E5B9A1 ====


All thanks go to the original releaser