Subcategories
Tags
Language
Tags

Heart - Little Queen (1977) {Reissue}

Posted By: popsakov
Heart - Little Queen (1977) {Reissue}

Heart - Little Queen (1977) {Reissue}
EAC Rip | FLAC (Img) + Cue + Log ~ 235 Mb | MP3 CBR320 ~ 97 Mb
Scans Included | 00:39:17 | RAR 5% Recovery
Classic Rock, Folk Rock, Hard Rock | Portrait #CDPRT-82075
CD manufactured by CBS/Sony Inc. in Japan

After acquiring a substantial following with Dreamboat Annie, Heart solidified its niche in the hard rock and arena rock worlds with the equally impressive Little Queen. Once again, loud-and-proud, Led Zeppelin-influenced hard rock was the thing that brought Heart the most attention. But while "Barracuda" and "Kick It Out" are the type of sweaty rockers one thought of first when Heart's name was mentioned, hard rock by no means dominates this album. In fact, much of Little Queen consists of such folk-influenced, acoustic-oriented fare as "Treat Me Well" and "Cry to Me." Anyone doubting just how much Heart's ballads have changed over the years need only play "Dream of the Archer" next to a high-volume power ballad like "Wait for an Answer" from 1987's Bad Animals.

~ Alex Henderson, All Music

***************

Heart - Little Queen (1977) {Reissue}

Heart - Little Queen (1977) {Reissue}

Track List:

01. Barracuda [4:23]
02. Love Alive [4:16]
03. Sylvan Song [2:19]
04. Dream Of The Archer [4:31]
05. Kick It Out [2:48]
06. Little Queen [5:13]
07. Treat Me Well [3:24]
08. Say Hello [3:36]
09. Cry To Me [2:52]
10. Go On Cry [5:55]

Personnel:
Ann Wilson - lead vocals, flute
Nancy Wilson - acoustic and electric guitars, autoharp, mandolin, piano, lead vocals on "Treat Me Well", backing vocals
Roger Fisher - lead guitar, mandolin[10]
Howard Leese - acoustic and electric guitars, synthesizer, piano, Moog bass, mellotron, mandolin, backing vocals, orchestral arrangement and conductor on "Treat Me Well"
Steve Fossen - bass guitar
Michael DeRosier - drums, chimes, tabla, percussion, timpani

Additional musicians:
Lynn Wilson Keagle, Seal (Celia) Dunnington - vocals on "Cry to Me" and "Go On Cry"

Exact Audio Copy V1.0 beta 3 from 29. August 2011

Отчёт EAC об извлечении, выполненном 20. января 2014, 20:39

Heart / Little Queen [CDPRT-82075]

Дисковод: ASUS DRW-2014S1 Adapter: 1 ID: 0

Режим чтения : Достоверность
Использование точного потока : Да
Отключение кэша аудио : Да
Использование указателей C2 : Нет

Коррекция смещения при чтении : 6
Способность читать области Lead-in и Lead-out : Нет
Заполнение пропущенных сэмплов тишиной : Да
Удаление блоков с тишиной в начале и конце : Нет
При вычислениях CRC использовались нулевые сэмплы : Да
Интерфейс : Встроенный Win32-интерфейс для Win NT/2000

Выходной формат : Пользовательский кодировщик
Выбранный битрейт : 128 kBit/s
Качество : Высокий
Добавление ID3-тега : Да
Утилита сжатия : C:\Program Files\Exact Audio Copy\Flac\flac.exe
Дополнительные параметры : -V -8 -T "Date=%year%" -T "Genre=%genre%" %source%


TOC извлечённого CD

Трек | Старт | Длительность | Начальный сектор | Конечный сектор
––––––––––––––––––––––––––––––––––-
1 | 0:00.00 | 4:22.55 | 0 | 19704
2 | 4:22.55 | 4:15.70 | 19705 | 38899
3 | 8:38.50 | 2:19.15 | 38900 | 49339
4 | 10:57.65 | 4:31.05 | 49340 | 69669
5 | 15:28.70 | 2:47.70 | 69670 | 82264
6 | 18:16.65 | 5:13.15 | 82265 | 105754
7 | 23:30.05 | 3:23.72 | 105755 | 121051
8 | 26:54.02 | 3:36.23 | 121052 | 137274
9 | 30:30.25 | 2:51.50 | 137275 | 150149
10 | 33:22.00 | 5:55.37 | 150150 | 176811


Характеристики диапазона извлечения и сообщения об ошибках

Выбранный диапазон

Имя файла J:\Музыка\Heart\1977 Little Queen\Heart - Little Queen [CDPRT-82075].wav

Пиковый уровень 86.9 %
Скорость извлечения 7.3 X
Качество диапазона 100.0 %
CRC копии 18D83936
Копирование… OK

Ошибок не произошло


AccurateRip: сводка

Трек 1 : извлечено точно (доверие 6) [2F264BBB] (AR v1)
Трек 2 : извлечено точно (доверие 6) [AB6F68C8] (AR v1)
Трек 3 : извлечено точно (доверие 6) [E30E6A6D] (AR v1)
Трек 4 : извлечено точно (доверие 6) [24DDCDD6] (AR v1)
Трек 5 : извлечено точно (доверие 6) [96FC6C58] (AR v1)
Трек 6 : извлечено точно (доверие 6) [B5B0B90E] (AR v1)
Трек 7 : извлечено точно (доверие 6) [BB19BE03] (AR v1)
Трек 8 : извлечено точно (доверие 6) [4043C179] (AR v1)
Трек 9 : извлечено точно (доверие 6) [171A541D] (AR v1)
Трек 10 : извлечено точно (доверие 6) [1E585A88] (AR v1)

Все треки извлечены точно

Конец отчёта

==== Контрольная сумма отчёта E81215A097E4F9F1B0BC8D2C7185FB30233D3F26B9C081ED98B0EA1E3DD8A8E9 ====

[CUETools log; Date: 17.10.2018 2:08:14; Version: 2.1.6]
[CTDB TOCID: vQGDsysWKIr6Td6t4yaCAR5XyRA-] found.
Track | CTDB Status
1 | (146/147) Accurately ripped
2 | (144/147) Accurately ripped
3 | (147/147) Accurately ripped
4 | (145/147) Accurately ripped
5 | (146/147) Accurately ripped
6 | (146/147) Accurately ripped
7 | (147/147) Accurately ripped
8 | (147/147) Accurately ripped
9 | (133/147) Accurately ripped
10 | (126/147) Accurately ripped
[AccurateRip ID: 000e828c-0073c0e3-7109350a] found.
Track [ CRC | V2 ] Status
01 [2f264bbb|bac97427] (006+003/186) Accurately ripped
02 [ab6f68c8|f004cf83] (006+003/182) Accurately ripped
03 [e30e6a6d|c383d300] (006+003/185) Accurately ripped
04 [24ddcdd6|e21128eb] (006+003/184) Accurately ripped
05 [96fc6c58|6d3a0752] (006+003/183) Accurately ripped
06 [b5b0b90e|9a97f880] (006+003/186) Accurately ripped
07 [bb19be03|3a865081] (006+003/178) Accurately ripped
08 [4043c179|c262cfa0] (006+003/183) Accurately ripped
09 [171a541d|8a83c4a9] (006+003/182) Accurately ripped
10 [1e585a88|b2df0e90] (006+003/178) Accurately ripped
Offsetted by -412:
01 [93fe9945] (002/186) Accurately ripped
02 [9338f58c] (002/182) Accurately ripped
03 [e5535fcf] (002/185) Accurately ripped
04 [b2b9d391] (002/184) Accurately ripped
05 [1239a3af] (002/183) Accurately ripped
06 [6a29cd42] (002/186) Accurately ripped
07 [657c86ae] (002/178) Accurately ripped
08 [79a51a95] (002/183) Accurately ripped
09 [3eb50380] (002/182) Accurately ripped
10 [cecf05e6] (003/178) Accurately ripped
Offsetted by -383:
01 [261d1756] (027/186) Accurately ripped
02 [5e17b846] (026/182) Accurately ripped
03 [6696e0f2] (026/185) Accurately ripped
04 [df14fda8] (026/184) Accurately ripped
05 [81d69dc0] (025/183) Accurately ripped
06 [d7eb48da] (026/186) Accurately ripped
07 [05c2df98] (025/178) Accurately ripped
08 [20a0f796] (026/183) Accurately ripped
09 [75c14451] (026/182) Accurately ripped
10 [9b65ec77] (025/178) Accurately ripped
Offsetted by -10:
01 [06fd7e46] (048/186) Accurately ripped
02 [e2732468] (046/182) Accurately ripped
03 [a6fdf76f] (048/185) Accurately ripped
04 [cd8a13c2] (049/184) Accurately ripped
05 [9c7d3748] (046/183) Accurately ripped
06 [ee1fbebb] (048/186) Accurately ripped
07 [f6db0402] (045/178) Accurately ripped
08 [454a073e] (047/183) Accurately ripped
09 [e6376eac] (047/182) Accurately ripped
10 [1d27d45c] (044/178) Accurately ripped
Offsetted by 257:
01 [ef2175fa] (000/186) No match
02 [5eb1c32a] (000/182) No match
03 [986134da] (000/185) No match
04 [cf9ed8c8] (000/184) No match
05 [11fc422d] (000/183) No match
06 [e32584b0] (000/186) No match
07 [f424e538] (000/178) No match
08 [ad340250] (000/183) No match
09 [3f915026] (000/182) No match
10 [9b081b81] (000/178) No match (V2 was not tested)
Offsetted by 303:
01 [9b5651da] (004/186) Accurately ripped
02 [19b83038] (004/182) Accurately ripped
03 [ab7d659b] (004/185) Accurately ripped
04 [d8c47965] (004/184) Accurately ripped
05 [f939ce86] (004/183) Accurately ripped
06 [c49962af] (004/186) Accurately ripped
07 [03999a1b] (003/178) Accurately ripped
08 [0e50a2fc] (004/183) Accurately ripped
09 [3cde8651] (000/182) No match (V2 was not tested)
10 [cf760082] (000/178) No match
Offsetted by 528:
01 [15cc1d8b] (000/186) No match
02 [5e6dff10] (000/182) No match
03 [a9247c9e] (000/185) No match
04 [21d16feb] (000/184) No match
05 [298a58b4] (000/183) No match
06 [a4ee8bac] (000/186) No match
07 [57dc05fb] (000/178) No match
08 [5b658b71] (000/183) No match
09 [705598f8] (000/182) No match
10 [9cbf7ac5] (000/178) No match (V2 was not tested)
Offsetted by 574:
01 [944e5f21] (006/186) Accurately ripped
02 [e2096d5b] (006/182) Accurately ripped
03 [9dea5fbe] (006/185) Accurately ripped
04 [d5a11d59] (006/184) Accurately ripped
05 [3f05f29c] (006/183) Accurately ripped
06 [f36f98b0] (006/186) Accurately ripped
07 [6655bdc0] (006/178) Accurately ripped
08 [6dd73496] (006/183) Accurately ripped
09 [e02f544b] (000/182) No match (V2 was not tested)
10 [eb0314a2] (000/178) No match

Track Peak [ CRC32 ] [W/O NULL] [ LOG ]
– 86,9 [18D83936] [CD5BE166] CRC32
01 86,9 [5B6D9521] [42533B52]
02 84,1 [36AE1FF6] [B08D3722]
03 51,7 [A48AA407] [310772E9]
04 64,6 [E143427B] [004D334F]
05 85,5 [4EBC1650] [458A4FFA]
06 84,2 [EF35E684] [15D1C500]
07 60,1 [60D94E8F] [7E69DDFE]
08 69,4 [E9ABDFEE] [E4E7055D]
09 58,4 [2BC38926] [8AC2F25F]
10 72,9 [24E8A3B0] [FD5C513F]

Heart - Little Queen (1977) {Reissue}


All thanks go to ikebana

>>> Heart in my Blog <<<

DOWNLOAD: