Subcategories

Heartbreak Radio - Heartbreak Radio (2005)

Posted By: Andi_Deris
Heartbreak Radio - Heartbreak Radio (2005)

Heartbreak Radio - Heartbreak Radio (2005)
EAC Rip | FLAC: Image+Cue+Log | 348 Mb | MP3 CBR 320 kbps | 118 Mb | Scans | 34 Mb | Time: 46:29
AOR Heaven | AOR HEAVEN 00012
Melodic Hard Rock/AOR

HEARTBREAK RADIO is a band project which was founded in the year 2004 by production team Torbjörn Wassenius / Claes Andreasson, you can hear Tommy Denander, Sayit and T'Bell on guitars. Pierre Weinsberg do 8 track vocals and Mikael Erlandsson does 3. It's a lot of Journey influences. In 2005 the self-titled debut album was released on AOR Heaven label, received great reviews from all over the world.

Track Listing

01. Heartbreak Radio (00:26)
02. Hard Rock City (03:44)
03. Now You're Gone (05:08)
04. Rockin' The Night (03:27)
05. Let Me Have My Heart Again (04:48)
06. Don't Look In Her Eyes (04:22)
07. Only You (04:47)
08. Knockin' On Hell's Door (03:30)
09. Love Don't Live Here No More (04:59)
10. Dreamworld (03:11)
11. Just 4 Love (04:05)
12. The Way Of The World (04:02)

Produced by Torbjörn Wassenius and Claes Andreasson

The Band

• Pierre Weinsberg (Prisoner) - Vocals
• Mikael Erlandsson (Last Autumns Dream, Crash, Salute, Lover Under Cover) - Vocals
• Sayit Dolen (Sayit) - Guitars
• Patrick Tibell (T'Bell) - Guitars
• Tommy Denander (Radioactive, Prisoner, Prisoner, Sayit, House Of Lords, Deacon Street Project, Spin Gallery, Sha-Boom, Silver, Locomotive Breath, Last Autumn's Dream) - Guitars

*****
• Max Abbey (Strasse) - Guitars
• Magnus Rosen (Hammerfall) - Bass
• Joel Starander (Kharma) - Bass
• Mikkey De (King Diamond, Don Dokken, Motörhead, Helloween) - Drums
• Jim Jidhed - Backing Vocals

Exact Audio Copy V1.0 beta 1 from 15. November 2010

EAC extraction logfile from 13. February 2011, 16:51

Heartbreak Radio / Heartbreak Radio

Used drive : HL-DT-STDVDRAM GH20NS10 Adapter: 0 ID: 1

Read mode : Secure
Utilize accurate stream : Yes
Defeat audio cache : Yes
Make use of C2 pointers : No

Read offset correction : 667
Overread into Lead-In and Lead-Out : No
Fill up missing offset samples with silence : Yes
Delete leading and trailing silent blocks : No
Null samples used in CRC calculations : No
Used interface : Installed external ASPI interface

Used output format : User Defined Encoder
Selected bitrate : 768 kBit/s
Quality : High
Add ID3 tag : No
Command line compressor : C:\Program Files\Exact Audio Copy\FLAC\FLAC.EXE
Additional command line options : -6 -V -T "ARTIST=%a" -T "TITLE=%t" -T "ALBUM=%g" -T "DATE=%y" -T "TRACKNUMBER=%n" -T "GENRE=%m" -T "COMMENT=%e" %j–picture="%i"%j %s -o %d


TOC of the extracted CD

Track | Start | Length | Start sector | End sector
––––––––––––––––––––––––––––-
1 | 0:00.00 | 0:26.11 | 0 | 1960
2 | 0:26.11 | 3:44.17 | 1961 | 18777
3 | 4:10.28 | 5:07.72 | 18778 | 41874
4 | 9:18.25 | 3:27.16 | 41875 | 57415
5 | 12:45.41 | 4:47.71 | 57416 | 79011
6 | 17:33.37 | 4:21.33 | 79012 | 98619
7 | 21:54.70 | 4:47.25 | 98620 | 120169
8 | 26:42.20 | 3:29.37 | 120170 | 135881
9 | 30:11.57 | 4:59.02 | 135882 | 158308
10 | 35:10.59 | 3:10.46 | 158309 | 172604
11 | 38:21.30 | 4:05.27 | 172605 | 191006
12 | 42:26.57 | 4:01.58 | 191007 | 209139


Range status and errors

Selected range

Filename D:\123\Heartbreak Radio - Heartbreak Radio.wav

Peak level 98.8 %
Extraction speed 0.5 X
Range quality 100.0 %
Copy CRC F0FB2D5F
Copy OK

No errors occurred


AccurateRip summary

Track 1 accurately ripped (confidence 2) [19911EEE]
Track 2 accurately ripped (confidence 3) [E22DFDBC]
Track 3 accurately ripped (confidence 3) [F4CF5DBD]
Track 4 accurately ripped (confidence 3) [4F3ACB63]
Track 5 accurately ripped (confidence 3) [D87B7099]
Track 6 accurately ripped (confidence 3) [C6B3332E]
Track 7 accurately ripped (confidence 3) [35AC3B7A]
Track 8 accurately ripped (confidence 2) [A50D9450]
Track 9 accurately ripped (confidence 3) [A3C0D16B]
Track 10 accurately ripped (confidence 3) [222FE0A5]
Track 11 accurately ripped (confidence 3) [09190618]
Track 12 accurately ripped (confidence 2) [A5BDCE58]

All tracks accurately ripped

End of status report


Many thanks to the original uploader: Wtorm58


Clockwise 1997 Nostalgia [Japanese Ed.]
Clockwise 1998 Naive

Dreamtide 2001 What You Believe In (EP) [Japanese Ed.]
Dreamtide 2001 Here Comes The Flood [Japanese Ed.]
Dreamtide 2003 Dreams For The Darling [Japanese Ed.]
Dreamtide 2008 Dream And Deliver [Japanese Ed.]

Fair Warning 1992 Fair Warning [Japan 1st Press]
Fair Warning 1993 Live In Japan [Japan 1st Press]
Fair Warning 1995 Rainmaker [Japan 1st Press]
Fair Warning 1995 Rainmaker [Japanese Ed. 2006]
Fair Warning 1997 Go! [Japan 1st Press]
Fair Warning 1997 Go! [Japan SHM-CD, 2009] 2CD
Fair Warning 1997 Early Warnings: '92~'95 [Japan 1st Press]
Fair Warning 1998 Live And More [Japan 1st Press] 2CD
Fair Warning 2000 4 (Four) [Japan 1st Press]
Fair Warning 2001 A Decade Of Fair Warning •Complete Best• [Japanese Ed.] 2CD
Fair Warning 2006 Brother's Keeper [Japanese Ed.]
Fair Warning 2006 Brother's Keeper [Japan SHM-CD, 2009]
Fair Warning 2009 Aura [Limited Ed. Digipak]
Fair Warning 2009 Aura [Deluxe Ed., Japan SHM-CD] 2CD
Fair Warning 2010 Talking Ain't Enough - Live In Tokyo [2xDVD]
Fair Warning 2013 Sundancer [Japan SHM-CD] 2CD

Last Autumn's Dream 2003-2011 Studio Discography [Japanese Ed.]
Last Autumn's Dream 2012 Ten Tangerine Tales [Japanese Ed.]
Last Autumn's Dream 2013 Platform ~10th Anniversary Best~ [Japanese Ed.]
Last Autumn's Dream 2014 Level Eleven [Japanese Ed.] 2CD
Last Autumn's Dream 2015 Paintings [Japanese Ed.]

Lover Under Cover 2012 Set The Night On Fire [Japanese Ed.]
Lover Under Cover 2014 Into The Night [Japanese Ed.]

Northern Light 2005 Northern Light [Japanese Ed.]

Overland 2009 Diamond Dealer
Overland 2014 Epic

Salute 2009 Toy Soldier

Soul Doctor 2001 Soul Doctor [Japanese Ed.]
Soul Doctor 2002 System Go Wild! (2002) [Japanese Ed.]
Soul Doctor 2005 For A Fistful Of Dollars [Japanese Ed.]
Soul Doctor 2007 Blood Runs Cold [Japanese Ed.]
Soul Doctor 2008 That's Live! [Japanese Ed. 2009]
Soul Doctor 2009 Way Back To The Bone [Japanese Ed.]

Talisman 1990 Talisman [Deluxe Ed. 2012] Digipak
Talisman 1993 Genesis [Deluxe Ed. 2012] Digipak
Talisman 1994 Live In Japan [Deluxe Ed. 2012] Digipak
Talisman 1994 Humanimal [Deluxe Ed. 2012] Digipak

Therion 2012 Les Fleurs Du Mal [Tour Edition]

Treat 1985 Scratch And Bite + Live At Firefest III [Limited Ed. 2008] CD + DVD
Treat 2010 Coup de Grace [Japanese Ed.]

Vindictiv 2013 Cage Of Infinity